VERSION	0.00.00	1.03.00
FES_MODE	0
BPM_DEF	150.000	150.000	150.000	150.000
MET_DEF	4	4
RESOLUTION	384
CLK_DEF	384
COMPATIBLE_CODE	MA2

BPM	0	0	150.000
MET	0	0	4	4

TAP	1	0	5
TAP	1	48	5
TAP	1	192	2
TAP	1	240	2
TAP	2	0	5
TAP	2	48	5
TAP	2	192	2
TAP	2	240	2
TAP	3	0	5
TAP	3	48	5
TAP	3	192	2
TAP	3	240	2
TAP	4	0	5
TAP	4	48	5
TAP	4	192	2
TAP	4	240	2
TAP	4	288	4
TAP	4	312	3
TAP	4	336	4
TAP	4	360	3
STR	5	0	5
SI_	5	0	5	96	48	3
TAP	5	48	5
STR	5	192	2
SI_	5	192	2	96	48	4
TAP	5	240	2
STR	6	0	6
SI_	6	0	6	96	48	3
TAP	6	48	6
STR	6	192	1
SI_	6	192	1	96	48	4
TAP	6	240	1
STR	7	0	7
SI_	7	0	7	96	48	3
TAP	7	48	7
STR	7	192	0
SI_	7	192	0	96	48	4
TAP	7	240	0
TAP	8	0	7
TAP	8	48	7
TAP	8	96	0
TAP	8	120	7
TAP	8	144	0
BRK	8	168	6
BRK	8	240	1
TAP	8	312	7
TAP	8	360	7
STR	9	0	0
SCR	9	0	0	96	48	3
TAP	9	48	0
STR	9	192	7
SCL	9	192	7	96	48	4
TAP	9	240	7
STR	10	0	0
SUR	10	0	0	96	48	4
TAP	10	48	0
STR	10	192	7
SUL	10	192	7	96	48	3
TAP	10	240	7
STR	11	0	0
SV_	11	0	0	96	48	5
TAP	11	48	0
STR	11	192	7
SV_	11	192	7	96	48	2
TAP	11	240	7
STR	12	0	0
SUR	12	0	0	96	48	6
TAP	12	48	0
STR	12	192	7
SUL	12	192	7	96	48	1
TAP	12	240	7
STR	13	0	0
SCL	13	0	0	96	48	5
TAP	13	48	0
STR	13	192	7
SCR	13	192	7	96	48	2
TAP	13	240	7
STR	14	0	0
SUL	14	0	0	96	48	3
TAP	14	48	0
STR	14	192	7
SUR	14	192	7	96	48	4
TAP	14	240	7
STR	15	0	0
SUL	15	0	0	96	48	1
TAP	15	48	0
STR	15	192	7
SUR	15	192	7	96	48	6
TAP	15	240	7
STR	16	0	0
SUL	16	0	0	96	192	7
TAP	16	48	0
TAP	17	0	0
TAP	17	48	7
TAP	17	96	0
TAP	17	120	0
TAP	17	144	0
TAP	17	192	7
TAP	17	240	0
TAP	17	264	0
TAP	17	288	7
TAP	17	312	0
TAP	18	0	6
TAP	18	48	1
TAP	18	72	1
TAP	18	96	1
TAP	18	144	6
TAP	18	192	1
TAP	18	240	6
TAP	18	264	6
TAP	18	288	1
TAP	18	336	6
TAP	18	360	6
HLD	19	0	3	48
HLD	19	48	4	48
TAP	19	96	2
TAP	19	144	5
TAP	19	168	5
TAP	19	192	5
TAP	19	240	2
TAP	19	264	2
TAP	19	288	5
TAP	19	312	2
TAP	20	0	7
TAP	20	96	6
TAP	20	120	1
TAP	20	144	5
TAP	20	168	2
TAP	20	192	4
TAP	20	216	3
TAP	20	240	4
BRK	20	288	0
TAP	21	0	5
TAP	21	24	4
TAP	21	48	5
TAP	21	72	4
TAP	21	96	5
TAP	21	120	5
TAP	21	168	2
TAP	21	192	2
TAP	21	240	3
TAP	21	264	2
TAP	21	288	3
TAP	21	312	2
TAP	22	0	6
TAP	22	48	7
TAP	22	72	6
TAP	22	96	7
TAP	22	120	6
TAP	22	168	6
TAP	22	192	1
TAP	22	216	0
TAP	22	264	1
TAP	22	288	0
TAP	22	336	1
TAP	23	0	0
TAP	23	0	2
TAP	23	96	5
TAP	23	96	7
STR	23	192	0
SI_	23	192	0	96	48	4
TAP	23	216	0
TAP	23	240	0
TAP	23	264	0
TAP	24	0	7
TAP	24	72	0
TAP	24	120	7
TAP	24	168	0
TAP	24	192	6
TAP	24	216	1
TAP	24	240	7
TAP	24	264	0
TAP	24	288	6
TAP	24	312	1
TAP	24	336	7
TAP	24	360	0
STR	25	0	6
SCR	25	0	6	96	48	1
TAP	25	216	4
TAP	25	240	3
TAP	25	264	5
BRK	25	288	4
STR	26	0	1
SCL	26	0	1	96	48	6
TAP	26	216	3
TAP	26	240	4
TAP	26	264	2
BRK	26	288	3
STR	27	0	6
SCR	27	0	6	96	48	1
TAP	27	216	4
TAP	27	240	2
TAP	27	264	5
BRK	27	288	3
STR	28	0	1
SCL	28	0	1	96	48	6
TAP	28	216	3
TAP	28	240	5
TAP	28	264	2
BRK	28	288	4
STR	29	0	5
SI_	29	0	5	96	48	0
TAP	29	216	5
TAP	29	240	2
TAP	29	264	4
BRK	29	288	3
STR	30	0	2
SI_	30	0	2	96	48	7
TAP	30	216	2
TAP	30	240	5
TAP	30	264	3
BRK	30	288	4
STR	31	0	4
SI_	31	0	4	96	48	1
STR	31	192	3
SI_	31	192	3	96	48	6
STR	32	0	4
SI_	32	0	4	96	48	1
STR	32	96	3
SI_	32	96	3	96	48	6
STR	32	192	5
SI_	32	192	5	96	48	0
STR	32	288	2
SI_	32	288	2	96	48	7
BRK	33	96	0
STR	33	96	3
SI_	33	96	3	96	48	6
STR	33	192	4
SI_	33	192	4	96	48	1
STR	33	288	2
SI_	33	288	2	96	48	7
STR	34	0	5
SI_	34	0	5	96	48	0
STR	34	96	3
SI_	34	96	3	96	48	6
STR	34	192	4
SI_	34	192	4	96	48	1
STR	34	288	2
SI_	34	288	2	96	48	7
STR	35	0	5
SI_	35	0	5	96	48	0
STR	35	96	3
SI_	35	96	3	96	48	6
STR	35	192	4
SI_	35	192	4	96	48	1
STR	35	288	2
SI_	35	288	2	96	48	7
STR	36	0	5
SI_	36	0	5	96	48	0
STR	36	96	3
SI_	36	96	3	96	48	6
STR	36	192	4
SI_	36	192	4	96	48	1
TAP	36	288	2
STR	37	0	4
SI_	37	0	4	96	48	1
BRK	37	0	7
STR	37	96	3
SI_	37	96	3	96	48	6
STR	37	192	5
SI_	37	192	5	96	48	0
STR	37	288	2
SI_	37	288	2	96	48	7
STR	38	0	4
SI_	38	0	4	96	48	1
STR	38	96	3
SI_	38	96	3	96	48	6
STR	38	192	5
SI_	38	192	5	96	48	0
STR	38	288	2
SI_	38	288	2	96	48	7
STR	39	0	4
SI_	39	0	4	96	48	1
STR	39	96	3
SI_	39	96	3	96	48	6
STR	39	192	5
SI_	39	192	5	96	48	0
STR	39	288	2
SI_	39	288	2	96	48	7
STR	40	0	4
SI_	40	0	4	96	48	1
STR	40	96	3
SI_	40	96	3	96	48	6
STR	40	192	5
SI_	40	192	5	96	48	0
TAP	40	288	2
BRK	41	0	1
BRK	41	0	7
TAP	41	120	3
TAP	41	168	7
BRK	41	192	0
BRK	41	192	6
TAP	41	312	4
TAP	41	360	0
BRK	42	0	1
BRK	42	0	7
TAP	42	120	3
TAP	42	168	7
BRK	42	192	0
BRK	42	192	6
TAP	42	312	4
TAP	42	360	0
BRK	43	0	1
BRK	43	0	7
TAP	43	120	3
TAP	43	168	7
BRK	43	192	2
BRK	43	192	4
TAP	43	312	5
STR	43	360	7
SCL	43	360	7	96	696	0
TAP	46	0	7
BRK	46	48	5
BRK	46	48	6
TAP	46	192	0
BRK	46	240	1
BRK	46	240	2
TAP	47	0	7
TAP	47	48	6
TAP	47	96	0
TAP	47	144	1
TAP	47	192	7
TAP	47	216	0
TAP	47	240	6
TAP	47	264	1
TAP	47	288	5
TAP	47	312	2
TAP	47	336	4
TAP	47	360	3
STR	48	0	0
SI_	48	0	0	96	48	5
STR	48	96	4
SI_	48	96	4	96	48	1
STR	48	192	3
SI_	48	192	3	96	48	6
STR	48	288	7
SI_	48	288	7	96	48	2
STR	49	0	0
SI_	49	0	0	96	48	5
STR	49	96	4
SI_	49	96	4	96	48	1
STR	49	192	3
SI_	49	192	3	96	48	6
STR	49	288	7
SI_	49	288	7	96	48	2
STR	50	0	0
SI_	50	0	0	96	48	5
STR	50	96	4
SI_	50	96	4	96	48	1
STR	50	192	3
SI_	50	192	3	96	48	6
STR	50	288	7
SI_	50	288	7	96	48	2
STR	51	0	1
SI_	51	0	1	96	48	4
STR	51	96	5
SI_	51	96	5	96	48	0
STR	51	192	2
SI_	51	192	2	96	48	7
STR	51	288	6
SI_	51	288	6	96	48	3
STR	52	0	0
SI_	52	0	0	96	48	5
STR	52	96	4
SI_	52	96	4	96	48	1
STR	52	192	3
SI_	52	192	3	96	48	6
STR	52	288	7
SI_	52	288	7	96	48	2
STR	53	0	1
SI_	53	0	1	96	48	4
STR	53	96	5
SI_	53	96	5	96	48	0
STR	53	192	2
SI_	53	192	2	96	48	7
STR	53	288	6
SI_	53	288	6	96	48	3
STR	54	0	0
SI_	54	0	0	96	48	5
STR	54	96	4
SI_	54	96	4	96	48	1
STR	54	192	3
SI_	54	192	3	96	48	6
STR	54	288	7
SI_	54	288	7	96	48	2
STR	55	0	0
SI_	55	0	0	96	48	5
STR	55	96	7
SI_	55	96	7	96	48	2
STR	55	192	4
SUL	55	192	4	96	144	3

T_REC_TAP	172
T_REC_BRK	27
T_REC_XTP	0
T_REC_HLD	2
T_REC_XHO	0
T_REC_STR	95
T_REC_BST	0
T_REC_XST	0
T_REC_TTP	0
T_REC_THO	0
T_REC_SLD	95
T_REC_ALL	391
T_NUM_TAP	267
T_NUM_BRK	27
T_NUM_HLD	2
T_NUM_SLD	95
T_NUM_ALL	391
T_JUDGE_TAP	294
T_JUDGE_HLD	2
T_JUDGE_SLD	95
T_JUDGE_ALL	391
TTM_EACHPAIRS	12
TTM_SCR_TAP	133500
TTM_SCR_BRK	70200
TTM_SCR_HLD	2000
TTM_SCR_SLD	142500
TTM_SCR_ALL	348200
TTM_SCR_S	335150
TTM_SCR_SS	345500
TTM_RAT_ACV	10078

