VERSION	0.00.00	1.03.00
FES_MODE	0
BPM_DEF	150.000	150.000	150.000	150.000
MET_DEF	4	4
RESOLUTION	384
CLK_DEF	384
COMPATIBLE_CODE	MA2

BPM	0	0	150.000
MET	0	0	4	4

TAP	1	0	1
TAP	1	192	1
TAP	2	0	6
TAP	2	192	6
TAP	3	0	0
TAP	3	192	0
TAP	4	0	7
TAP	4	96	7
TAP	4	192	7
TAP	4	288	7
TAP	5	0	0
TAP	5	0	1
TAP	5	192	0
TAP	5	192	1
TAP	6	0	6
TAP	6	0	7
TAP	6	192	6
TAP	6	192	7
TAP	7	0	2
TAP	7	0	3
TAP	7	192	4
TAP	7	192	5
TAP	8	0	1
TAP	8	0	2
TAP	8	96	5
TAP	8	96	6
HLD	8	192	0	144
HLD	8	192	7	144
STR	9	0	0
SI_	9	0	0	96	48	4
STR	9	192	7
SI_	9	192	7	96	48	3
STR	10	0	1
SI_	10	0	1	96	48	4
STR	10	192	6
SI_	10	192	6	96	48	3
STR	11	0	2
SI_	11	0	2	96	48	4
STR	11	192	5
SI_	11	192	5	96	48	3
TAP	12	0	1
TAP	12	0	4
TAP	12	96	3
TAP	12	96	6
STR	12	192	0
SI_	12	192	0	96	48	4
STR	12	192	7
SI_	12	192	7	96	48	3
TAP	13	0	0
TAP	13	96	2
TAP	13	192	3
TAP	13	288	0
TAP	13	288	7
TAP	14	0	7
TAP	14	96	5
TAP	14	192	4
TAP	14	288	0
TAP	14	288	7
TAP	15	0	3
TAP	15	96	4
TAP	15	192	3
TAP	15	288	0
TAP	15	288	7
TAP	16	0	0
TAP	16	48	7
TAP	16	96	0
TAP	16	144	7
TAP	16	192	0
TAP	16	192	7
BRK	16	288	1
BRK	16	288	6
TAP	17	0	2
TAP	17	0	3
TAP	17	96	4
TAP	17	96	5
TAP	17	192	2
TAP	17	192	3
TAP	17	288	4
TAP	17	288	5
TAP	18	0	1
TAP	18	0	3
TAP	18	96	4
TAP	18	96	6
TAP	18	192	1
TAP	18	192	3
TAP	18	288	4
TAP	18	288	6
TAP	19	0	1
TAP	19	0	2
TAP	19	96	5
TAP	19	96	6
TAP	19	192	1
TAP	19	192	2
TAP	19	288	5
TAP	19	288	6
TAP	20	0	3
TAP	20	0	4
TAP	20	96	2
TAP	20	96	3
TAP	20	192	4
TAP	20	192	5
BRK	20	288	0
BRK	20	288	7
TAP	21	0	0
TAP	21	0	1
TAP	21	48	0
TAP	21	48	1
TAP	21	96	0
TAP	21	96	1
TAP	21	192	6
TAP	21	192	7
TAP	21	240	6
TAP	21	240	7
TAP	21	288	6
TAP	21	288	7
TAP	22	0	2
TAP	22	0	5
TAP	22	48	2
TAP	22	48	5
TAP	22	96	3
TAP	22	96	4
TAP	22	144	3
TAP	22	144	4
TAP	22	192	3
TAP	22	192	4
TAP	22	288	2
TAP	22	288	5
TAP	23	0	2
TAP	23	0	3
TAP	23	96	4
TAP	23	96	5
TAP	23	192	3
TAP	23	240	4
STR	23	288	3
SI_	23	288	3	96	96	0
STR	23	288	4
SI_	23	288	4	96	96	7
STR	25	0	7
SCL	25	0	7	96	96	4
TAP	25	288	0
STR	26	0	0
SCR	26	0	0	96	96	3
TAP	26	288	7
STR	27	0	6
SCL	27	0	6	96	96	3
TAP	27	288	0
STR	28	0	1
SCR	28	0	1	96	96	4
TAP	28	288	7
STR	29	0	5
SCR	29	0	5	96	96	7
TAP	29	288	0
STR	30	0	2
SCL	30	0	2	96	96	0
TAP	30	288	7
HLD	31	0	1	96
TAP	31	96	2
HLD	31	192	6	96
TAP	31	288	5
HLD	32	0	2	96
TAP	32	96	3
HLD	32	192	5	96
TAP	32	288	4
BRK	33	0	0
BRK	33	0	7
TAP	33	96	0
TAP	33	96	7
TAP	33	192	2
TAP	33	192	5
TAP	33	288	3
TAP	33	288	4
TAP	34	0	2
TAP	34	0	3
TAP	34	96	3
TAP	34	96	4
TAP	34	192	4
TAP	34	192	5
TAP	34	288	1
TAP	34	288	6
TAP	35	0	1
TAP	35	0	2
TAP	35	96	0
TAP	35	96	2
TAP	35	192	5
TAP	35	192	6
TAP	35	288	5
TAP	35	288	7
TAP	36	0	6
TAP	36	0	7
TAP	36	96	4
TAP	36	96	5
TAP	36	192	2
TAP	36	192	3
BRK	36	288	0
BRK	36	288	1
TAP	37	0	2
TAP	37	96	1
TAP	37	96	3
TAP	37	192	2
TAP	37	288	1
TAP	37	288	3
TAP	38	0	5
TAP	38	96	4
TAP	38	96	6
TAP	38	192	5
TAP	38	288	4
TAP	38	288	6
TAP	39	0	0
TAP	39	0	7
TAP	39	96	1
TAP	39	192	0
TAP	39	192	7
TAP	39	288	6
TAP	40	0	1
TAP	40	0	6
TAP	40	96	0
TAP	40	192	1
TAP	40	192	6
TAP	40	288	7
HLD	41	0	0	96
HLD	41	0	1	96
HLD	41	192	2	96
HLD	41	192	7	96
HLD	42	0	6	96
HLD	42	0	7	96
HLD	42	192	0	96
HLD	42	192	5	96
HLD	43	0	2	96
HLD	43	0	5	96
HLD	43	192	0	96
HLD	43	192	7	96
HLD	44	0	1	672
HLD	44	0	6	672
TAP	46	0	0
TAP	46	0	7
TAP	46	48	0
TAP	46	48	7
TAP	46	192	1
TAP	46	192	6
TAP	46	240	1
TAP	46	240	6
TAP	47	0	2
TAP	47	0	3
TAP	47	48	2
TAP	47	48	3
TAP	47	96	4
TAP	47	96	5
TAP	47	144	4
TAP	47	144	5
TAP	47	192	3
TAP	47	192	4
TAP	47	240	3
TAP	47	240	4
BRK	47	288	1
BRK	47	288	6
TAP	48	0	0
TAP	48	0	1
TAP	48	96	2
TAP	48	96	7
TAP	48	192	6
TAP	48	192	7
TAP	48	288	0
TAP	48	288	5
TAP	49	0	4
TAP	49	0	5
TAP	49	96	3
TAP	49	96	6
TAP	49	192	2
TAP	49	192	3
TAP	49	288	1
TAP	49	288	4
TAP	50	0	2
TAP	50	0	3
TAP	50	96	1
TAP	50	96	3
TAP	50	192	4
TAP	50	192	5
TAP	50	288	4
TAP	50	288	6
TAP	51	0	0
TAP	51	0	1
TAP	51	96	2
TAP	51	96	3
TAP	51	192	4
TAP	51	192	5
BRK	51	288	6
BRK	51	288	7
STR	52	0	0
SI_	52	0	0	96	48	4
STR	52	192	7
SI_	52	192	7	96	48	3
STR	53	0	1
SI_	53	0	1	96	48	4
STR	53	192	6
SI_	53	192	6	96	48	3
STR	54	0	2
SI_	54	0	2	96	48	7
STR	54	192	5
SI_	54	192	5	96	48	0
STR	55	0	3
SI_	55	0	3	96	48	7
STR	55	192	4
SI_	55	192	4	96	48	0

T_REC_TAP	223
T_REC_BRK	12
T_REC_XTP	0
T_REC_HLD	20
T_REC_XHO	0
T_REC_STR	24
T_REC_BST	0
T_REC_XST	0
T_REC_TTP	0
T_REC_THO	0
T_REC_SLD	24
T_REC_ALL	303
T_NUM_TAP	247
T_NUM_BRK	12
T_NUM_HLD	20
T_NUM_SLD	24
T_NUM_ALL	303
T_JUDGE_TAP	259
T_JUDGE_HLD	66
T_JUDGE_SLD	24
T_JUDGE_ALL	349
TTM_EACHPAIRS	106
TTM_SCR_TAP	123500
TTM_SCR_BRK	31200
TTM_SCR_HLD	20000
TTM_SCR_SLD	36000
TTM_SCR_ALL	210700
TTM_SCR_S	203250
TTM_SCR_SS	209500
TTM_RAT_ACV	10057

