VERSION	0.00.00	1.03.00
FES_MODE	0
BPM_DEF	150.000	150.000	150.000	150.000
MET_DEF	4	4
RESOLUTION	384
CLK_DEF	384
COMPATIBLE_CODE	MA2

BPM	0	0	150.000
MET	0	0	4	4

STR	1	0	1
SI_	1	0	1	96	288	6
STR	3	0	5
SI_	3	0	5	96	288	2
TAP	5	0	3
TAP	5	192	3
TAP	6	0	4
TAP	6	192	4
TAP	7	0	2
TAP	7	192	2
TAP	8	0	5
BRK	8	192	5
TAP	9	0	6
TAP	9	96	6
TAP	9	192	6
TAP	10	0	7
TAP	10	96	7
TAP	10	192	7
TAP	11	0	0
TAP	11	96	0
TAP	11	192	0
TAP	12	0	1
TAP	12	96	1
TAP	12	192	1
TAP	13	0	2
TAP	13	96	3
TAP	13	192	2
TAP	14	0	5
TAP	14	96	4
TAP	14	192	5
TAP	15	0	6
TAP	15	96	6
TAP	15	192	6
TAP	16	0	7
TAP	16	96	7
BRK	16	192	7
TAP	17	0	6
TAP	17	96	6
TAP	17	192	5
TAP	17	288	5
HLD	18	0	4	192
TAP	18	288	4
TAP	19	0	3
TAP	19	96	3
TAP	19	192	4
TAP	19	288	4
HLD	20	0	5	192
BRK	20	288	5
TAP	21	0	5
TAP	21	96	5
TAP	21	192	6
TAP	21	288	6
HLD	22	0	7	192
TAP	22	288	7
TAP	23	0	0
TAP	23	96	0
BRK	23	192	7
BRK	23	288	7
HLD	24	0	0	192
HLD	24	0	7	192
TAP	25	0	0
TAP	25	0	7
TAP	26	0	6
TAP	26	0	7
TAP	27	0	0
TAP	27	0	7
TAP	28	0	0
TAP	28	0	1
TAP	29	0	0
TAP	29	0	7
TAP	30	0	5
TAP	30	0	6
TAP	31	0	3
TAP	31	0	4
TAP	32	0	1
TAP	32	0	2
BRK	33	0	0
BRK	33	0	7
TAP	33	192	0
TAP	33	192	7
TAP	34	0	1
TAP	34	0	6
TAP	34	192	1
TAP	34	192	6
TAP	35	0	2
TAP	35	0	5
TAP	35	192	2
TAP	35	192	5
TAP	36	0	3
TAP	36	0	4
TAP	36	192	3
TAP	36	192	4
BRK	37	0	5
TAP	37	192	4
TAP	38	0	3
TAP	38	192	2
TAP	39	0	1
TAP	39	192	0
TAP	40	0	7
TAP	40	192	6
TAP	41	0	4
TAP	41	0	5
TAP	41	192	4
TAP	41	192	5
TAP	42	0	2
TAP	42	0	3
TAP	42	192	2
TAP	42	192	3
TAP	43	0	4
TAP	43	0	5
TAP	43	192	4
TAP	43	192	5
HLD	44	0	2	576
HLD	44	0	3	576
TAP	46	0	3
TAP	46	192	3
TAP	47	0	4
TAP	47	192	4
TAP	48	0	5
TAP	48	96	5
TAP	48	192	5
TAP	49	0	6
TAP	49	96	6
TAP	49	192	6
TAP	50	0	7
TAP	50	96	7
TAP	50	192	7
TAP	51	0	0
TAP	51	96	0
TAP	51	192	0
TAP	51	192	7
TAP	52	0	2
TAP	52	96	3
TAP	52	192	2
TAP	53	0	5
TAP	53	96	4
TAP	53	192	5
TAP	54	0	3
TAP	54	96	3
TAP	54	192	4
TAP	54	288	4
TAP	55	0	3
TAP	55	96	3
TAP	55	192	4
BRK	55	288	3
BRK	55	288	4

T_REC_TAP	125
T_REC_BRK	10
T_REC_XTP	0
T_REC_HLD	7
T_REC_XHO	0
T_REC_STR	2
T_REC_BST	0
T_REC_XST	0
T_REC_TTP	0
T_REC_THO	0
T_REC_SLD	2
T_REC_ALL	146
T_NUM_TAP	127
T_NUM_BRK	10
T_NUM_HLD	7
T_NUM_SLD	2
T_NUM_ALL	146
T_JUDGE_TAP	137
T_JUDGE_HLD	44
T_JUDGE_SLD	2
T_JUDGE_ALL	183
TTM_EACHPAIRS	26
TTM_SCR_TAP	63500
TTM_SCR_BRK	26000
TTM_SCR_HLD	7000
TTM_SCR_SLD	3000
TTM_SCR_ALL	99500
TTM_SCR_S	95550
TTM_SCR_SS	98500
TTM_RAT_ACV	10101

