VERSION	0.00.00	1.03.00
FES_MODE	0
BPM_DEF	121.000	121.000	121.000	121.000
MET_DEF	4	4
RESOLUTION	384
CLK_DEF	384
COMPATIBLE_CODE	MA2

BPM	0	0	121.000
MET	0	0	4	4

STR	2	0	0
SCL	2	0	0	96	96	5
STR	2	0	4
SCL	2	0	4	96	96	1
TAP	2	336	6
STR	3	0	6
SCR	3	0	6	96	48	2
TAP	3	144	6
STR	3	192	6
SCL	3	192	6	96	48	2
TAP	3	336	6
STR	4	0	0
SI_	4	0	0	96	96	4
STR	4	0	6
SI_	4	0	6	96	96	2
STR	4	336	0
SCR	4	336	0	96	144	4
STR	5	0	0
SCL	5	0	0	96	96	4
BRK	5	288	0
BRK	5	288	7
STR	6	0	4
SI_	6	0	4	96	48	2
STR	6	96	3
SI_	6	96	3	96	48	5
STR	6	192	4
SI_	6	192	4	96	48	1
STR	6	288	3
SI_	6	288	3	96	48	6
STR	7	0	4
SI_	7	0	4	96	48	0
STR	7	96	3
SI_	7	96	3	96	48	7
STR	7	192	4
SI_	7	192	4	96	48	7
STR	7	288	3
SI_	7	288	3	96	48	0
STR	8	0	4
SI_	8	0	4	96	48	6
STR	8	96	3
SI_	8	96	3	96	48	1
STR	8	192	3
SI_	8	192	3	96	48	6
STR	8	288	4
SI_	8	288	4	96	48	1
STR	9	0	2
SI_	9	0	2	96	48	6
STR	9	96	5
SI_	9	96	5	96	48	1
HLD	9	192	3	96
BRK	9	288	7
HLD	10	0	7	96
HLD	10	96	0	96
STR	10	192	1
SCR	10	192	1	96	48	4
HLD	10	240	1	144
STR	11	0	5
SCR	11	0	5	96	48	0
HLD	11	48	5	144
STR	11	192	2
SCL	11	192	2	96	48	7
HLD	11	240	2	144
HLD	12	0	0	96
HLD	12	96	7	96
STR	12	192	6
SCL	12	192	6	96	48	3
HLD	12	240	6	144
STR	13	0	2
SCL	13	0	2	96	48	7
HLD	13	48	2	96
STR	13	192	5
SCR	13	192	5	96	48	0
STR	13	240	1
SCR	13	240	1	96	48	4
TAP	14	0	5
TAP	14	48	5
TAP	14	72	6
TAP	14	96	7
TAP	14	144	7
TAP	14	168	0
TAP	14	192	1
TAP	14	240	1
TAP	14	264	2
TAP	14	288	3
TAP	15	0	2
TAP	15	48	2
TAP	15	72	1
TAP	15	96	0
TAP	15	144	0
TAP	15	168	7
TAP	15	192	6
TAP	15	240	6
TAP	15	264	5
TAP	15	288	4
TAP	15	336	4
TAP	16	0	2
TAP	16	24	6
TAP	16	48	4
TAP	16	72	6
TAP	16	96	2
TAP	16	120	4
TAP	16	144	2
TAP	16	168	6
TAP	16	192	1
TAP	16	216	5
TAP	16	240	3
TAP	16	264	5
TAP	16	288	1
TAP	16	312	3
TAP	16	336	1
TAP	16	360	5
TAP	17	0	1
TAP	17	48	1
TAP	17	96	0
TAP	17	144	7
HLD	17	192	6	96
BRK	17	288	0
TAP	18	0	1
TAP	18	0	7
TAP	18	96	5
TAP	18	96	7
TAP	18	168	7
TAP	18	192	0
TAP	18	216	6
TAP	18	240	7
STR	18	288	7
SI_	18	288	7	96	48	2
STR	18	336	7
SI_	18	336	7	96	48	4
STR	19	0	7
SI_	19	0	7	96	48	1
STR	19	48	7
SI_	19	48	7	96	48	5
STR	19	96	7
SI_	19	96	7	96	48	3
TAP	19	192	7
TAP	19	288	0
HLD	20	0	0	48
TAP	20	48	7
TAP	20	72	0
HLD	20	96	1	48
TAP	20	144	0
TAP	20	168	1
HLD	20	192	2	48
TAP	20	240	1
TAP	20	264	2
HLD	20	288	3	48
TAP	20	336	2
TAP	20	360	3
HLD	21	0	4	48
TAP	21	48	3
TAP	21	72	4
HLD	21	96	5	48
TAP	21	144	4
TAP	21	168	5
HLD	21	192	6	48
TAP	21	240	5
TAP	21	264	6
HLD	21	288	7	48
TAP	21	336	6
TAP	21	360	7
HLD	22	0	0	48
TAP	22	48	1
HLD	22	96	2	48
TAP	22	144	7
HLD	22	192	6	48
TAP	22	240	3
HLD	22	288	4	48
TAP	22	336	5
TAP	23	0	3
TAP	23	24	2
TAP	23	48	3
TAP	23	72	4
TAP	23	96	2
TAP	23	144	6
TAP	23	192	4
TAP	23	288	2
TAP	23	288	4
TAP	23	336	3
TAP	24	0	5
TAP	24	48	4
TAP	24	72	3
STR	24	96	2
SCL	24	96	2	96	48	7
STR	24	144	6
SCL	24	144	6	96	48	3
TAP	24	336	2
TAP	25	0	5
TAP	25	24	3
TAP	25	48	2
TAP	25	72	3
TAP	25	96	5
TAP	25	144	2
TAP	25	168	4
TAP	25	192	5
TAP	25	216	4
TAP	25	240	2
TAP	26	0	1
TAP	26	0	5
TAP	26	48	1
TAP	26	96	0
TAP	26	96	4
TAP	26	144	4
TAP	26	192	3
TAP	26	192	7
TAP	26	240	7
TAP	26	288	2
TAP	26	288	6
TAP	26	336	0
TAP	26	336	4
TAP	27	0	2
TAP	27	0	6
TAP	27	48	6
TAP	27	96	3
TAP	27	96	7
TAP	27	144	3
TAP	27	192	0
TAP	27	192	4
TAP	27	240	0
TAP	27	288	1
TAP	27	288	5
TAP	27	336	3
TAP	27	336	7
TAP	28	0	1
TAP	28	0	5
TAP	28	48	2
TAP	28	96	3
TAP	28	96	7
TAP	28	144	6
TAP	28	192	0
TAP	28	192	5
TAP	28	240	1
TAP	28	288	2
TAP	28	288	6
TAP	28	336	5
TAP	29	0	3
TAP	29	0	4
TAP	29	48	1
TAP	29	48	7
TAP	29	96	2
TAP	29	96	3
TAP	29	144	0
TAP	29	144	6
TAP	29	192	4
TAP	29	192	5
TAP	29	240	1
TAP	29	240	6
BRK	29	288	3
BRK	29	288	4
TAP	30	0	5
TAP	30	0	7
TAP	30	48	0
TAP	30	48	7
TAP	30	96	0
TAP	30	96	2
TAP	30	144	0
TAP	30	144	6
TAP	30	192	4
TAP	30	192	6
TAP	30	240	1
TAP	30	240	6
TAP	30	288	1
TAP	30	288	3
TAP	30	336	1
TAP	30	336	5
TAP	31	0	2
TAP	31	0	3
BRK	31	48	0
BRK	31	48	7
TAP	31	96	4
TAP	31	96	5
BRK	31	144	0
BRK	31	144	7
TAP	31	192	1
TAP	31	192	2
BRK	31	240	0
BRK	31	240	7
TAP	31	288	5
TAP	31	288	6
BRK	31	336	0
BRK	31	336	7
TAP	32	0	2
TAP	32	0	3
TAP	32	48	3
TAP	32	48	6
TAP	32	96	4
TAP	32	96	5
TAP	32	144	1
TAP	32	144	4
TAP	32	192	1
TAP	32	192	2
TAP	32	240	1
TAP	32	240	6
TAP	32	288	5
TAP	32	288	6
TAP	32	336	1
TAP	32	336	6
TAP	33	0	0
TAP	33	0	1
TAP	33	48	1
TAP	33	48	4
TAP	33	96	6
TAP	33	96	7
TAP	33	144	3
TAP	33	144	6
TAP	33	192	0
TAP	33	192	2
TAP	33	240	1
TAP	33	240	6
TAP	33	288	5
TAP	33	288	7
TAP	33	336	1
TAP	33	336	6
BRK	34	0	3
BRK	34	0	4
HLD	34	192	5	96
HLD	34	288	2	96
STR	35	0	0
SSL	35	0	0	96	72	4
TAP	35	24	1
TAP	35	48	0
TAP	35	72	1
STR	35	192	7
SSR	35	192	7	96	72	3
TAP	35	216	6
TAP	35	240	7
TAP	35	264	6
STR	36	0	1
SCL	36	0	1	96	48	6
STR	36	96	5
SUR	36	96	5	96	48	2
STR	36	192	3
SV_	36	192	3	96	48	4
STR	37	0	1
SSR	37	0	1	96	72	5
TAP	37	24	2
TAP	37	48	1
TAP	37	72	2
STR	37	192	6
SSL	37	192	6	96	72	2
TAP	37	216	5
TAP	37	240	6
TAP	37	264	5
STR	38	0	6
SCR	38	0	6	96	48	1
STR	38	96	2
SUL	38	96	2	96	48	5
STR	38	192	4
SV_	38	192	4	96	48	3
TAP	39	0	0
TAP	39	48	5
STR	39	96	6
SUL	39	96	6	96	96	5
HLD	39	144	3	144
TAP	40	0	7
TAP	40	48	2
STR	40	96	1
SUR	40	96	1	96	96	2
HLD	40	144	4	144
TAP	40	336	0
STR	41	0	0
SI_	41	0	0	96	48	5
TAP	41	48	0
STR	41	96	1
SI_	41	96	1	96	48	4
TAP	41	144	1
STR	41	192	7
SI_	41	192	7	96	48	2
TAP	41	240	7
STR	41	288	6
SI_	41	288	6	96	48	3
TAP	41	336	6
STR	42	0	0
SI_	42	0	0	96	48	4
TAP	42	48	0
STR	42	96	1
SI_	42	96	1	96	48	5
TAP	42	144	1
STR	42	192	7
SI_	42	192	7	96	48	3
TAP	42	240	7
STR	42	288	6
SI_	42	288	6	96	48	2
TAP	42	336	6
STR	43	0	0
SI_	43	0	0	96	48	3
TAP	43	48	0
STR	43	96	0
SI_	43	96	0	96	48	5
TAP	43	144	0
STR	43	192	0
SI_	43	192	0	96	48	3
TAP	43	240	0
TAP	43	288	0
TAP	43	336	0
STR	44	0	7
SI_	44	0	7	96	48	4
TAP	44	48	7
STR	44	96	7
SI_	44	96	7	96	48	2
TAP	44	144	7
STR	44	192	7
SI_	44	192	7	96	48	4
TAP	44	240	7
TAP	44	288	7
TAP	44	336	7
STR	45	0	0
SI_	45	0	0	96	48	3
STR	45	48	7
SI_	45	48	7	96	48	4
STR	45	96	0
SI_	45	96	0	96	48	2
STR	45	144	7
SI_	45	144	7	96	48	3
STR	45	192	0
SI_	45	192	0	96	48	4
STR	45	240	7
SI_	45	240	7	96	48	5
STR	45	288	0
SI_	45	288	0	96	48	3
STR	45	336	7
SI_	45	336	7	96	48	2
STR	46	0	0
SI_	46	0	0	96	48	5
STR	46	48	7
SI_	46	48	7	96	48	4
STR	46	96	0
SI_	46	96	0	96	48	3
STR	46	144	7
SCL	46	144	7	96	48	4
STR	46	192	0
SCR	46	192	0	96	48	3
TAP	46	240	7
TAP	46	288	0
TAP	46	336	7
BRK	47	0	0

T_REC_TAP	242
T_REC_BRK	17
T_REC_XTP	0
T_REC_HLD	27
T_REC_XHO	0
T_REC_STR	75
T_REC_BST	0
T_REC_XST	0
T_REC_TTP	0
T_REC_THO	0
T_REC_SLD	75
T_REC_ALL	436
T_NUM_TAP	317
T_NUM_BRK	17
T_NUM_HLD	27
T_NUM_SLD	75
T_NUM_ALL	436
T_JUDGE_TAP	334
T_JUDGE_HLD	48
T_JUDGE_SLD	75
T_JUDGE_ALL	457
TTM_EACHPAIRS	60
TTM_SCR_TAP	158500
TTM_SCR_BRK	44200
TTM_SCR_HLD	27000
TTM_SCR_SLD	112500
TTM_SCR_ALL	342200
TTM_SCR_S	330300
TTM_SCR_SS	340500
TTM_RAT_ACV	10049

