VERSION	0.00.00	1.03.00
FES_MODE	0
BPM_DEF	121.000	121.000	121.000	121.000
MET_DEF	4	4
RESOLUTION	384
CLK_DEF	384
COMPATIBLE_CODE	MA2

BPM	0	0	121.000
MET	0	0	4	4

TAP	2	0	1
TAP	2	0	6
TAP	2	336	0
TAP	3	0	0
TAP	3	72	7
TAP	3	144	7
TAP	3	240	3
TAP	3	288	4
TAP	3	336	3
TAP	4	0	1
TAP	4	0	6
TAP	4	336	2
TAP	5	0	2
TAP	5	72	3
TAP	5	72	4
TAP	5	144	5
TAP	5	192	5
BRK	5	288	1
BRK	5	288	6
TAP	6	0	0
TAP	6	0	7
TAP	6	336	1
TAP	7	0	1
TAP	7	72	6
TAP	7	144	6
TAP	7	240	3
TAP	7	288	4
TAP	7	336	3
TAP	8	0	1
TAP	8	0	6
TAP	8	192	0
TAP	8	192	7
TAP	9	0	0
TAP	9	0	1
TAP	9	96	4
TAP	9	96	5
TAP	9	192	6
TAP	9	192	7
BRK	9	288	2
BRK	9	288	3
TAP	10	0	1
TAP	10	96	0
TAP	10	192	6
TAP	10	240	5
TAP	10	288	4
TAP	11	0	2
TAP	11	48	3
TAP	11	96	1
TAP	11	144	3
TAP	11	192	2
TAP	11	288	7
TAP	12	0	6
TAP	12	96	7
TAP	12	192	1
TAP	12	240	2
TAP	12	288	3
TAP	13	0	5
TAP	13	48	4
TAP	13	96	6
TAP	13	168	2
TAP	13	192	3
TAP	13	240	1
TAP	13	288	0
TAP	13	336	7
TAP	14	0	6
TAP	14	48	3
TAP	14	96	4
TAP	14	144	1
TAP	14	192	2
TAP	14	192	5
TAP	14	240	0
TAP	14	264	7
TAP	14	288	0
TAP	15	0	4
TAP	15	48	6
TAP	15	72	5
TAP	15	96	6
TAP	15	144	2
TAP	15	192	2
TAP	15	216	3
TAP	15	240	2
TAP	15	288	5
TAP	15	312	4
TAP	15	336	5
TAP	16	0	2
TAP	16	0	3
TAP	16	48	1
TAP	16	96	0
TAP	16	144	7
TAP	16	192	5
TAP	16	192	6
TAP	16	240	4
TAP	16	288	3
TAP	16	336	2
TAP	17	0	0
TAP	17	0	1
TAP	17	48	7
TAP	17	96	6
TAP	17	144	5
TAP	17	192	4
BRK	17	288	0
BRK	17	288	7
TAP	18	0	0
TAP	18	96	2
TAP	18	168	6
TAP	18	192	4
TAP	18	240	7
TAP	18	288	1
TAP	18	336	1
TAP	19	0	0
TAP	19	48	0
TAP	19	96	7
TAP	19	144	7
TAP	19	192	1
TAP	19	216	0
TAP	19	240	1
TAP	19	264	0
TAP	19	288	1
TAP	20	0	0
TAP	20	48	2
TAP	20	72	3
TAP	20	96	2
TAP	20	144	5
TAP	20	168	4
TAP	20	192	5
TAP	20	240	2
TAP	20	264	3
TAP	20	288	2
TAP	20	336	5
TAP	20	360	4
TAP	21	0	5
TAP	21	48	2
TAP	21	72	4
TAP	21	96	2
TAP	21	144	5
TAP	21	168	3
TAP	21	192	5
TAP	21	240	2
TAP	21	264	3
TAP	21	288	2
TAP	21	336	5
TAP	21	360	4
TAP	22	0	5
TAP	22	48	5
TAP	22	96	6
TAP	22	144	6
TAP	22	192	6
TAP	22	240	7
TAP	22	288	0
TAP	22	336	1
TAP	23	0	5
TAP	23	24	2
TAP	23	48	5
TAP	23	72	2
TAP	23	96	5
TAP	23	144	2
TAP	23	144	5
TAP	23	192	3
TAP	23	192	4
TAP	23	288	1
TAP	23	336	6
TAP	24	0	2
TAP	24	48	6
TAP	24	72	7
TAP	24	96	6
TAP	24	144	1
TAP	24	192	2
TAP	24	288	6
TAP	24	336	5
TAP	25	0	3
TAP	25	24	4
TAP	25	48	3
TAP	25	72	4
TAP	25	96	3
TAP	25	144	7
TAP	25	168	0
TAP	25	192	7
TAP	25	216	0
TAP	25	240	6
TAP	25	264	1
TAP	25	288	6
TAP	26	0	0
TAP	26	48	5
TAP	26	96	3
TAP	26	144	7
TAP	26	192	0
TAP	26	240	4
TAP	26	288	3
TAP	26	336	6
TAP	27	0	1
TAP	27	48	7
TAP	27	96	3
TAP	27	144	0
TAP	27	192	2
TAP	27	240	5
TAP	27	288	4
TAP	27	336	6
TAP	28	0	0
TAP	28	48	1
TAP	28	96	7
TAP	28	144	6
TAP	28	192	1
TAP	28	240	2
TAP	28	288	6
TAP	28	336	5
TAP	29	0	2
TAP	29	48	3
TAP	29	96	5
TAP	29	144	4
TAP	29	192	0
TAP	29	240	7
BRK	29	288	1
BRK	29	288	6
TAP	30	0	3
TAP	30	48	3
TAP	30	96	3
TAP	30	144	3
TAP	30	192	2
TAP	30	240	2
TAP	30	288	2
TAP	30	336	2
TAP	31	0	1
TAP	31	48	1
BRK	31	96	0
TAP	31	96	1
TAP	31	144	1
BRK	31	192	0
TAP	31	192	1
TAP	31	240	1
BRK	31	288	0
TAP	31	288	1
TAP	31	336	1
TAP	32	0	4
TAP	32	48	4
TAP	32	96	4
TAP	32	144	4
TAP	32	192	5
TAP	32	240	5
TAP	32	288	5
TAP	32	336	5
TAP	33	0	6
TAP	33	48	6
TAP	33	96	6
TAP	33	144	6
TAP	33	192	7
TAP	33	240	7
TAP	33	288	7
TAP	33	336	7
STR	34	0	7
SI_	34	0	7	96	48	3
STR	34	192	5
SI_	34	192	5	96	48	1
TAP	35	0	0
TAP	35	48	2
TAP	35	72	3
TAP	35	96	2
TAP	35	144	6
TAP	35	192	1
TAP	35	240	5
TAP	35	264	4
TAP	35	288	5
TAP	35	336	1
TAP	36	0	2
TAP	36	48	3
TAP	36	96	4
TAP	36	144	5
TAP	36	192	6
TAP	36	240	5
BRK	36	288	3
TAP	36	288	4
TAP	36	336	2
TAP	37	0	5
TAP	37	24	4
TAP	37	48	5
TAP	37	72	4
TAP	37	96	5
TAP	37	144	3
TAP	37	168	4
TAP	37	192	2
TAP	37	216	3
TAP	37	240	2
TAP	37	264	3
TAP	37	288	2
TAP	37	336	6
TAP	38	0	6
TAP	38	48	5
TAP	38	96	4
TAP	38	144	3
TAP	38	192	2
TAP	38	240	3
TAP	38	288	4
BRK	38	288	5
TAP	38	336	6
TAP	39	0	1
TAP	39	48	0
TAP	39	96	7
TAP	39	144	6
TAP	39	192	0
TAP	39	192	7
TAP	39	240	1
TAP	39	264	6
TAP	39	288	1
TAP	40	0	6
TAP	40	48	7
TAP	40	96	5
TAP	40	144	0
TAP	40	192	2
TAP	40	192	3
TAP	40	240	1
TAP	40	240	4
BRK	40	288	2
BRK	40	288	3
TAP	40	336	0
TAP	41	0	7
TAP	41	48	2
TAP	41	72	3
TAP	41	96	1
TAP	41	144	5
TAP	41	168	4
TAP	41	192	6
TAP	41	240	1
TAP	41	264	0
TAP	41	288	2
TAP	41	336	6
TAP	41	360	7
TAP	42	0	5
TAP	42	48	0
TAP	42	72	7
TAP	42	96	1
TAP	42	144	4
TAP	42	168	3
TAP	42	192	5
TAP	42	240	0
TAP	42	264	7
BRK	42	288	0
TAP	42	336	7
TAP	43	0	7
TAP	43	48	1
TAP	43	72	0
TAP	43	96	1
TAP	43	144	6
TAP	43	168	7
TAP	43	192	6
TAP	43	216	7
TAP	43	240	6
TAP	43	264	7
TAP	43	288	6
TAP	43	336	2
TAP	43	360	3
TAP	44	0	2
TAP	44	48	5
TAP	44	72	4
TAP	44	96	5
TAP	44	144	3
TAP	44	168	4
TAP	44	192	3
TAP	44	216	4
TAP	44	240	3
TAP	44	264	4
TAP	44	288	3
TAP	44	336	5
TAP	45	0	2
TAP	45	48	2
TAP	45	96	1
TAP	45	144	0
TAP	45	192	7
TAP	45	240	6
TAP	45	288	5
TAP	45	336	5
TAP	46	0	6
TAP	46	48	7
TAP	46	96	0
TAP	46	144	1
TAP	46	192	2
TAP	46	240	3
TAP	46	288	4
TAP	46	336	5
BRK	47	0	6
BRK	47	0	7

T_REC_TAP	357
T_REC_BRK	18
T_REC_XTP	0
T_REC_HLD	0
T_REC_XHO	0
T_REC_STR	2
T_REC_BST	0
T_REC_XST	0
T_REC_TTP	0
T_REC_THO	0
T_REC_SLD	2
T_REC_ALL	379
T_NUM_TAP	359
T_NUM_BRK	18
T_NUM_HLD	0
T_NUM_SLD	2
T_NUM_ALL	379
T_JUDGE_TAP	377
T_JUDGE_HLD	0
T_JUDGE_SLD	2
T_JUDGE_ALL	379
TTM_EACHPAIRS	29
TTM_SCR_TAP	179500
TTM_SCR_BRK	46800
TTM_SCR_HLD	0
TTM_SCR_SLD	3000
TTM_SCR_ALL	229300
TTM_SCR_S	220700
TTM_SCR_SS	227500
TTM_RAT_ACV	10079

