VERSION	0.00.00	1.03.00
FES_MODE	0
BPM_DEF	121.000	121.000	121.000	121.000
MET_DEF	4	4
RESOLUTION	384
CLK_DEF	384
COMPATIBLE_CODE	MA2

BPM	0	0	121.000
MET	0	0	4	4

TAP	2	0	1
TAP	2	0	6
TAP	3	0	1
TAP	3	0	2
TAP	3	192	0
TAP	3	192	7
TAP	4	0	5
TAP	4	0	6
TAP	5	0	0
TAP	5	0	7
TAP	5	192	0
TAP	5	192	7
BRK	5	288	1
BRK	5	288	6
TAP	6	0	0
TAP	6	96	1
TAP	6	192	2
TAP	6	288	3
TAP	7	0	7
TAP	7	96	6
TAP	7	192	5
TAP	7	288	4
TAP	8	0	3
TAP	8	96	2
TAP	8	192	1
TAP	8	288	0
TAP	9	0	4
TAP	9	96	5
TAP	9	192	6
BRK	9	288	0
BRK	9	288	7
TAP	10	0	2
TAP	10	96	3
TAP	10	192	4
TAP	10	288	4
TAP	10	288	5
TAP	11	0	3
TAP	11	96	2
TAP	11	192	1
TAP	11	288	0
TAP	11	288	7
TAP	12	0	6
TAP	12	96	5
TAP	12	192	4
TAP	12	288	2
TAP	12	288	3
TAP	13	0	4
TAP	13	96	5
TAP	13	192	6
TAP	13	288	0
TAP	13	288	7
STR	14	0	1
SI_	14	0	1	96	48	3
STR	14	192	6
SI_	14	192	6	96	48	4
STR	15	0	2
SI_	15	0	2	96	48	4
STR	15	192	5
SI_	15	192	5	96	48	3
TAP	16	0	2
TAP	16	0	3
TAP	16	96	4
TAP	16	96	5
TAP	16	192	2
TAP	16	192	3
TAP	16	288	4
TAP	16	288	5
TAP	17	0	5
TAP	17	0	6
TAP	17	96	3
TAP	17	96	4
TAP	17	192	1
TAP	17	192	2
BRK	17	288	0
BRK	17	288	7
STR	18	0	0
SCR	18	0	0	96	48	2
STR	18	192	7
SCL	18	192	7	96	48	5
STR	19	0	1
SCR	19	0	1	96	48	3
STR	19	192	6
SCL	19	192	6	96	48	4
TAP	20	0	3
TAP	20	96	3
TAP	20	96	4
TAP	20	192	2
TAP	20	192	3
TAP	20	288	2
TAP	20	288	3
TAP	21	0	1
TAP	21	0	2
TAP	21	96	1
TAP	21	96	2
TAP	21	192	0
TAP	21	192	1
TAP	21	288	0
TAP	21	288	1
TAP	22	0	7
TAP	22	96	6
TAP	22	192	5
TAP	22	288	4
TAP	23	0	0
TAP	23	96	1
TAP	23	192	2
TAP	23	288	3
TAP	24	0	4
TAP	24	96	3
TAP	24	192	5
TAP	24	288	0
TAP	24	288	7
TAP	25	0	0
TAP	25	48	0
TAP	25	96	1
TAP	25	192	7
TAP	25	240	7
TAP	25	288	6
TAP	26	0	0
TAP	26	96	7
TAP	26	192	0
TAP	26	288	7
TAP	27	0	1
TAP	27	96	6
TAP	27	192	0
TAP	27	288	7
TAP	28	0	1
TAP	28	96	2
TAP	28	192	3
TAP	28	288	4
TAP	29	0	5
TAP	29	96	6
TAP	29	192	0
TAP	29	192	7
TAP	29	288	1
TAP	29	288	6
HLD	30	0	0	96
HLD	30	96	7	96
HLD	30	192	0	96
HLD	30	288	7	96
HLD	31	0	1	96
HLD	31	96	6	96
HLD	31	192	0	96
HLD	31	288	7	96
HLD	32	0	1	96
TAP	32	96	2
HLD	32	192	3	96
TAP	32	288	4
HLD	33	0	5	96
TAP	33	96	6
TAP	33	192	0
TAP	33	192	7
TAP	33	288	1
TAP	33	288	6
TAP	34	0	0
TAP	34	0	7
TAP	34	192	0
TAP	34	192	7
BRK	34	288	3
BRK	34	288	4
TAP	35	0	5
TAP	35	96	2
TAP	35	192	5
TAP	35	240	5
TAP	35	288	4
TAP	35	288	6
TAP	36	0	7
TAP	36	96	5
TAP	36	192	2
TAP	36	240	2
TAP	36	288	1
TAP	36	288	3
TAP	37	0	1
TAP	37	96	7
TAP	37	192	3
TAP	37	240	3
TAP	37	288	2
TAP	37	288	4
TAP	38	0	6
TAP	38	96	0
TAP	38	192	4
TAP	38	240	3
TAP	38	288	4
TAP	38	336	3
TAP	39	0	6
TAP	39	96	5
TAP	39	144	4
TAP	39	192	5
TAP	39	288	0
TAP	39	288	7
TAP	40	0	2
TAP	40	96	4
TAP	40	192	3
TAP	40	240	3
TAP	40	288	2
TAP	40	288	4
TAP	41	0	0
TAP	41	96	1
TAP	41	192	2
TAP	41	288	3
TAP	42	0	4
TAP	42	96	5
TAP	42	192	6
TAP	42	288	7
TAP	43	0	0
TAP	43	0	1
TAP	43	96	2
TAP	43	96	7
TAP	43	192	6
TAP	43	192	7
TAP	43	288	0
TAP	43	288	5
TAP	44	0	0
TAP	44	0	4
TAP	44	96	1
TAP	44	96	5
TAP	44	192	2
TAP	44	192	6
TAP	44	288	3
TAP	44	288	7
TAP	45	0	3
TAP	45	48	3
TAP	45	96	4
TAP	45	144	4
TAP	45	192	2
TAP	45	240	2
TAP	45	288	5
TAP	45	336	5
TAP	46	0	1
TAP	46	48	1
TAP	46	96	6
TAP	46	144	6
TAP	46	192	0
TAP	46	240	0
TAP	46	288	7
TAP	46	336	7
BRK	47	0	1
BRK	47	0	6

T_REC_TAP	200
T_REC_BRK	10
T_REC_XTP	0
T_REC_HLD	11
T_REC_XHO	0
T_REC_STR	8
T_REC_BST	0
T_REC_XST	0
T_REC_TTP	0
T_REC_THO	0
T_REC_SLD	8
T_REC_ALL	237
T_NUM_TAP	208
T_NUM_BRK	10
T_NUM_HLD	11
T_NUM_SLD	8
T_NUM_ALL	237
T_JUDGE_TAP	218
T_JUDGE_HLD	22
T_JUDGE_SLD	8
T_JUDGE_ALL	248
TTM_EACHPAIRS	49
TTM_SCR_TAP	104000
TTM_SCR_BRK	26000
TTM_SCR_HLD	11000
TTM_SCR_SLD	12000
TTM_SCR_ALL	153000
TTM_SCR_S	147450
TTM_SCR_SS	152000
TTM_RAT_ACV	10065

