VERSION	0.00.00	1.03.00
FES_MODE	0
BPM_DEF	121.000	121.000	121.000	121.000
MET_DEF	4	4
RESOLUTION	384
CLK_DEF	384
COMPATIBLE_CODE	MA2

BPM	0	0	121.000
MET	0	0	4	4

TAP	2	0	3
TAP	2	0	4
TAP	3	0	3
TAP	3	192	3
TAP	4	0	3
TAP	4	0	4
TAP	5	0	4
TAP	5	192	4
TAP	6	0	3
TAP	6	0	4
TAP	6	192	3
TAP	7	0	2
TAP	7	192	1
TAP	8	0	0
TAP	8	0	7
TAP	8	192	6
TAP	9	0	5
BRK	9	192	4
TAP	10	0	2
TAP	10	0	3
TAP	10	192	2
TAP	10	192	3
TAP	11	0	4
TAP	11	192	4
TAP	12	0	4
TAP	12	0	5
TAP	12	192	4
TAP	12	192	5
TAP	13	0	3
TAP	13	192	3
STR	14	0	1
SI_	14	0	1	96	192	5
STR	15	0	6
SI_	15	0	6	96	192	2
TAP	16	0	1
TAP	16	192	1
TAP	17	0	0
TAP	17	96	0
TAP	17	192	0
TAP	18	0	6
TAP	18	0	7
TAP	18	192	6
TAP	18	192	7
TAP	19	0	0
TAP	19	96	0
TAP	19	192	0
TAP	20	0	0
TAP	20	0	1
TAP	20	192	0
TAP	20	192	1
TAP	21	0	7
TAP	21	96	7
TAP	21	192	7
STR	22	0	5
SI_	22	0	5	96	192	1
STR	23	0	2
SI_	23	0	2	96	192	6
TAP	24	0	7
TAP	24	192	7
TAP	25	0	0
TAP	25	96	0
TAP	25	192	0
TAP	26	0	1
TAP	26	96	1
TAP	26	192	1
TAP	27	0	3
TAP	27	96	3
TAP	27	192	3
TAP	28	0	5
TAP	28	96	5
TAP	28	192	5
TAP	29	0	7
TAP	29	96	7
TAP	29	192	7
STR	30	0	0
SI_	30	0	0	96	193	3
STR	31	0	4
SI_	31	0	4	96	192	7
STR	32	0	0
SI_	32	0	0	96	192	3
STR	33	0	4
SI_	33	0	4	96	192	7
BRK	34	0	0
TAP	34	192	0
TAP	34	288	0
TAP	35	0	7
TAP	35	96	7
TAP	35	192	7
TAP	36	0	6
TAP	36	96	6
TAP	36	192	6
TAP	37	0	5
TAP	37	96	5
TAP	37	192	5
TAP	38	0	4
TAP	38	96	4
TAP	38	192	4
HLD	39	0	3	192
TAP	39	288	3
HLD	40	0	2	192
TAP	40	288	2
TAP	41	0	2
TAP	41	192	2
TAP	42	0	1
TAP	42	192	1
TAP	43	0	0
TAP	43	0	1
TAP	43	192	0
TAP	43	192	1
TAP	44	0	6
TAP	44	0	7
TAP	44	192	6
TAP	44	192	7
TAP	45	0	0
TAP	45	96	0
TAP	45	192	0
TAP	45	288	0
TAP	46	0	7
TAP	46	96	7
TAP	46	192	7
TAP	46	288	7
BRK	47	0	0

T_REC_TAP	101
T_REC_BRK	3
T_REC_XTP	0
T_REC_HLD	2
T_REC_XHO	0
T_REC_STR	8
T_REC_BST	0
T_REC_XST	0
T_REC_TTP	0
T_REC_THO	0
T_REC_SLD	8
T_REC_ALL	122
T_NUM_TAP	109
T_NUM_BRK	3
T_NUM_HLD	2
T_NUM_SLD	8
T_NUM_ALL	122
T_JUDGE_TAP	112
T_JUDGE_HLD	8
T_JUDGE_SLD	8
T_JUDGE_ALL	128
TTM_EACHPAIRS	16
TTM_SCR_TAP	54500
TTM_SCR_BRK	7800
TTM_SCR_HLD	2000
TTM_SCR_SLD	12000
TTM_SCR_ALL	76300
TTM_SCR_S	73750
TTM_SCR_SS	76000
TTM_RAT_ACV	10039

