VERSION	0.00.00	1.03.00
FES_MODE	0
BPM_DEF	128.000	128.000	128.000	128.000
MET_DEF	4	4
RESOLUTION	384
CLK_DEF	384
COMPATIBLE_CODE	MA2

BPM	0	0	128.000
MET	0	0	4	4

STR	1	0	3
SUR	1	0	3	96	480	4
STR	1	0	4
SCR	1	0	4	96	480	3
HLD	3	192	6	96
HLD	3	288	2	96
HLD	4	0	3	96
HLD	4	96	4	96
HLD	4	192	5	96
STR	4	288	6
SCR	4	288	6	96	48	1
TAP	5	96	1
TAP	5	96	6
HLD	5	192	1	96
HLD	5	288	5	96
HLD	6	0	4	96
HLD	6	96	3	96
HLD	6	192	2	96
STR	6	288	1
SCL	6	288	1	96	48	6
TAP	7	96	1
TAP	7	96	6
HLD	7	192	5	96
HLD	7	288	1	96
HLD	8	0	0	96
HLD	8	96	7	96
HLD	8	192	6	96
STR	8	288	5
SCR	8	288	5	96	48	2
TAP	9	96	0
TAP	9	96	7
HLD	9	192	2	96
HLD	9	288	6	96
HLD	10	0	7	96
HLD	10	96	0	96
HLD	10	192	1	96
STR	10	288	2
SCL	10	288	2	96	48	5
BRK	11	96	0
BRK	11	96	7
TAP	11	192	2
TAP	11	240	4
TAP	11	288	3
TAP	11	336	5
STR	12	0	0
SI_	12	0	0	96	48	4
TAP	12	96	7
TAP	12	192	5
TAP	12	240	4
TAP	12	288	3
TAP	12	288	6
TAP	13	0	2
TAP	13	48	3
TAP	13	96	1
TAP	13	96	4
TAP	13	192	5
TAP	13	240	3
TAP	13	288	4
TAP	13	336	2
STR	14	0	7
SI_	14	0	7	96	48	3
TAP	14	96	0
TAP	14	192	2
TAP	14	240	3
TAP	14	288	1
TAP	14	288	4
TAP	15	0	5
TAP	15	48	4
TAP	15	96	3
TAP	15	96	6
TAP	15	192	2
TAP	15	240	7
TAP	15	288	0
TAP	15	336	5
STR	16	0	1
SI_	16	0	1	96	48	5
TAP	16	96	0
TAP	16	192	6
TAP	16	240	7
TAP	16	288	0
TAP	16	288	5
TAP	17	0	1
TAP	17	48	0
TAP	17	96	2
TAP	17	96	7
TAP	17	192	5
TAP	17	240	0
TAP	17	288	7
TAP	17	336	2
STR	18	0	6
SI_	18	0	6	96	48	2
TAP	18	96	7
TAP	18	192	0
TAP	18	240	1
TAP	18	240	6
TAP	18	288	2
TAP	18	288	5
STR	18	336	3
SI_	18	336	3	96	48	0
STR	18	336	4
SI_	18	336	4	96	48	7
STR	19	144	6
SUL	19	144	6	96	48	2
TAP	19	192	6
STR	19	336	1
SUR	19	336	1	96	48	5
TAP	20	0	1
TAP	20	96	6
TAP	20	144	3
TAP	20	144	4
TAP	20	240	6
TAP	20	240	7
TAP	20	288	0
TAP	20	288	5
TAP	20	336	1
TAP	20	336	4
TAP	21	0	2
TAP	21	0	3
TAP	21	48	0
TAP	21	48	7
STR	21	144	1
SUR	21	144	1	96	48	5
TAP	21	192	1
STR	21	336	6
SUL	21	336	6	96	48	2
TAP	22	0	6
TAP	22	96	1
TAP	22	144	3
TAP	22	144	4
TAP	22	240	0
TAP	22	240	1
TAP	22	288	2
TAP	22	288	7
TAP	22	336	3
TAP	22	336	6
TAP	23	0	4
TAP	23	0	5
TAP	23	48	0
TAP	23	48	7
TAP	23	96	1
TAP	23	96	6
STR	23	144	5
SUR	23	144	5	96	48	2
TAP	23	192	5
STR	23	336	1
SCL	23	336	1	96	48	6
TAP	24	0	1
TAP	24	96	5
TAP	24	144	0
TAP	24	144	7
TAP	24	240	1
TAP	24	288	2
TAP	24	336	3
TAP	25	0	4
TAP	25	48	5
TAP	25	96	6
STR	25	144	0
SI_	25	144	0	96	72	4
TAP	25	144	7
TAP	25	240	7
TAP	25	288	6
TAP	25	336	5
TAP	26	0	4
TAP	26	48	3
TAP	26	96	2
STR	26	144	0
SCL	26	144	0	96	48	5
STR	26	144	1
SCR	26	144	1	96	48	4
STR	26	336	6
SCL	26	336	6	96	48	3
STR	26	336	7
SCR	26	336	7	96	48	2
STR	27	144	0
SCR	27	144	0	96	48	3
STR	27	144	7
SUR	27	144	7	96	48	4
TAP	27	192	0
TAP	27	192	7
STR	27	336	0
SUL	27	336	0	96	48	3
STR	27	336	7
SCL	27	336	7	96	48	4
TAP	28	0	0
TAP	28	0	7
TAP	28	144	1
TAP	28	144	4
TAP	28	192	3
TAP	28	192	6
TAP	28	240	2
TAP	28	240	5
TAP	28	288	3
TAP	28	288	4
TAP	28	336	1
TAP	28	336	6
STR	29	0	0
SCR	29	0	0	96	48	3
STR	29	0	7
SCL	29	0	7	96	48	4
BRK	29	96	0
BRK	29	96	7
TAP	29	192	2
TAP	29	192	3
TAP	29	240	1
TAP	29	288	4
TAP	29	288	5
TAP	29	336	6
TAP	30	0	2
TAP	30	0	3
TAP	30	48	0
TAP	30	96	4
TAP	30	96	5
STR	30	144	7
SCL	30	144	7	96	48	4
STR	30	240	3
SCL	30	240	3	96	48	0
TAP	30	288	3
TAP	31	48	3
TAP	31	48	7
TAP	31	96	2
TAP	31	96	6
TAP	31	144	1
TAP	31	144	5
TAP	31	192	0
TAP	31	192	4
TAP	31	240	2
TAP	31	288	3
TAP	31	288	7
TAP	31	336	5
STR	32	0	0
SI_	32	0	0	96	48	4
STR	32	48	7
SI_	32	48	7	96	48	3
TAP	32	240	3
TAP	32	240	4
TAP	32	288	1
TAP	32	336	3
TAP	32	336	4
STR	33	0	6
SI_	33	0	6	96	48	2
BRK	33	48	0
BRK	33	96	0
TAP	33	192	1
TAP	33	192	3
TAP	33	240	2
TAP	33	288	4
TAP	33	288	6
TAP	33	336	5
TAP	34	0	0
TAP	34	0	2
TAP	34	48	1
TAP	34	96	5
TAP	34	96	7
HLD	34	144	6	96
TAP	34	240	0
TAP	34	288	3
TAP	34	288	4
TAP	34	336	1
TAP	34	336	7
TAP	35	48	0
TAP	35	48	4
TAP	35	96	1
TAP	35	96	5
TAP	35	144	2
TAP	35	144	6
TAP	35	192	3
TAP	35	192	7
TAP	35	240	5
TAP	35	288	0
TAP	35	288	4
TAP	35	336	2
TAP	36	0	3
TAP	36	0	7
TAP	36	48	4
TAP	36	96	2
TAP	36	96	5
TAP	36	144	0
TAP	36	144	7
TAP	36	240	3
TAP	36	240	4
TAP	36	288	2
TAP	36	288	3
TAP	36	336	4
TAP	36	336	5
STR	37	0	2
SUL	37	0	2	96	48	5
STR	37	0	6
SCR	37	0	6	96	48	1
TAP	37	192	4
TAP	37	192	5
TAP	37	240	6
TAP	37	288	2
TAP	37	288	3
TAP	37	336	1
TAP	38	0	4
TAP	38	0	5
TAP	38	48	7
TAP	38	96	2
TAP	38	96	3
STR	38	144	0
SCR	38	144	0	96	48	3
STR	38	240	4
SCR	38	240	4	96	48	7
TAP	38	288	4
TAP	39	48	0
TAP	39	48	4
TAP	39	96	1
TAP	39	96	5
TAP	39	144	2
TAP	39	144	6
TAP	39	192	3
TAP	39	192	7
TAP	39	240	1
TAP	39	288	0
TAP	39	288	4
TAP	39	336	6
STR	40	0	7
SI_	40	0	7	96	48	2
STR	40	48	0
SI_	40	48	0	96	48	5
TAP	40	240	3
TAP	40	240	4
TAP	40	288	6
TAP	40	336	3
TAP	40	336	4
STR	41	0	1
SI_	41	0	1	96	48	5
BRK	41	48	7
BRK	41	96	7
TAP	41	192	4
TAP	41	192	6
TAP	41	240	5
TAP	41	288	1
TAP	41	288	3
TAP	41	336	2
TAP	42	0	3
TAP	42	0	4
TAP	42	48	2
TAP	42	48	5
TAP	42	96	1
TAP	42	96	6
TAP	42	144	0
HLD	42	144	7	96
TAP	42	240	3
TAP	42	288	2
TAP	42	288	6
TAP	42	336	1
TAP	42	336	5
TAP	43	0	0
TAP	43	0	4
STR	43	96	3
SCL	43	96	3	96	48	0
STR	43	96	7
SCL	43	96	7	96	48	4
TAP	43	288	0
TAP	43	288	7
TAP	43	336	1
TAP	44	0	0
TAP	44	0	2
TAP	44	48	6
TAP	44	96	5
TAP	44	96	7
TAP	44	144	3
TAP	44	144	4
TAP	44	240	0
TAP	44	240	7
TAP	44	288	4
TAP	44	288	5
TAP	44	336	2
TAP	44	336	3
STR	45	0	1
SCL	45	0	1	96	48	6
STR	45	0	5
SUR	45	0	5	96	48	2
TAP	45	192	3
TAP	45	192	4
TAP	45	240	2
TAP	45	264	3
TAP	45	288	2
TAP	45	336	5
TAP	45	360	4
TAP	46	0	5
TAP	46	48	2
TAP	46	72	3
TAP	46	96	1
TAP	46	144	5
TAP	46	168	4
TAP	46	192	6
TAP	46	240	2
TAP	46	264	3
TAP	46	288	0
TAP	46	336	5
TAP	46	360	4
TAP	47	0	7
TAP	47	48	3
TAP	47	48	6
TAP	47	96	1
TAP	47	96	4
TAP	47	144	2
TAP	47	144	5
TAP	47	192	3
TAP	47	192	4
TAP	47	240	5
TAP	47	264	4
TAP	47	288	5
TAP	47	336	2
TAP	47	360	3
TAP	48	0	2
TAP	48	48	6
TAP	48	72	7
TAP	48	96	6
TAP	48	144	1
TAP	48	168	0
TAP	48	192	1
TAP	48	240	2
TAP	48	240	7
TAP	48	288	1
TAP	48	288	6
TAP	48	336	0
TAP	48	336	5
STR	49	0	6
SI_	49	0	6	96	48	3
STR	49	0	7
SI_	49	0	7	96	48	2
BRK	49	96	6
BRK	49	96	7
TAP	49	192	3
TAP	49	192	4
TAP	49	240	5
TAP	49	264	4
TAP	49	288	5
TAP	49	336	2
TAP	49	360	3
TAP	50	0	2
TAP	50	48	5
TAP	50	72	4
TAP	50	96	6
TAP	50	144	2
TAP	50	168	3
TAP	50	192	1
TAP	50	240	5
TAP	50	264	4
TAP	50	288	7
TAP	50	336	2
TAP	50	360	3
TAP	51	0	0
TAP	51	48	1
TAP	51	48	4
TAP	51	96	3
TAP	51	96	6
TAP	51	144	2
TAP	51	144	5
TAP	51	192	1
TAP	51	192	6
TAP	51	240	2
TAP	51	264	3
TAP	51	288	2
TAP	51	336	5
TAP	51	360	4
TAP	52	0	5
TAP	52	48	1
TAP	52	72	0
TAP	52	96	1
TAP	52	144	6
TAP	52	168	7
TAP	52	192	6
TAP	52	240	0
TAP	52	240	1
TAP	52	288	2
TAP	52	288	7
TAP	52	336	3
TAP	52	336	6
TAP	53	0	4
TAP	53	0	5
TAP	53	48	6
TAP	53	48	7
TAP	53	96	0
TAP	53	96	5
TAP	53	144	1
TAP	53	144	4
TAP	53	192	2
TAP	53	192	3
TAP	53	240	5
TAP	53	264	4
TAP	53	288	5
TAP	53	336	2
TAP	53	360	3
TAP	54	0	2
TAP	54	48	5
TAP	54	72	4
TAP	54	96	6
TAP	54	144	2
TAP	54	168	3
TAP	54	192	1
TAP	54	240	5
TAP	54	264	4
TAP	54	288	7
TAP	54	336	2
TAP	54	360	3
TAP	55	0	0
TAP	55	48	1
TAP	55	48	4
TAP	55	96	3
TAP	55	96	6
TAP	55	144	2
TAP	55	144	5
TAP	55	192	0
TAP	55	192	7
TAP	55	240	1
TAP	55	264	0
TAP	55	288	1
TAP	55	336	5
TAP	55	360	4
TAP	56	0	5
TAP	56	48	2
TAP	56	72	3
TAP	56	96	2
TAP	56	144	6
TAP	56	168	7
TAP	56	192	6
TAP	56	240	0
TAP	56	240	5
TAP	56	288	1
TAP	56	288	6
TAP	56	336	2
TAP	56	336	7
STR	57	0	0
SI_	57	0	0	96	48	5
STR	57	0	1
SI_	57	0	1	96	48	4
BRK	57	96	0
BRK	57	96	1
TAP	57	192	2
TAP	57	192	3
TAP	57	240	5
TAP	57	264	4
TAP	57	288	5
TAP	57	336	1
TAP	57	360	0
TAP	58	0	1
TAP	58	48	6
TAP	58	72	7
TAP	58	96	6
HLD	58	144	0	96
TAP	58	240	4
TAP	58	288	1
TAP	58	288	5
TAP	58	336	2
TAP	58	336	6
TAP	59	0	3
TAP	59	0	7
STR	59	96	0
SCR	59	96	0	96	48	3
STR	59	96	4
SCR	59	96	4	96	48	7
TAP	59	288	0
TAP	59	288	7
TAP	59	336	5
TAP	59	360	4
TAP	60	0	5
TAP	60	48	1
TAP	60	72	0
TAP	60	96	1
HLD	60	144	6	96
TAP	60	240	7
TAP	60	288	0
TAP	60	288	5
TAP	60	336	1
TAP	60	336	4
STR	61	0	2
SI_	61	0	2	96	48	7
STR	61	0	3
SI_	61	0	3	96	48	6
BRK	61	96	2
BRK	61	96	3
TAP	61	192	3
TAP	61	192	4
TAP	61	240	5
TAP	61	264	4
TAP	61	288	5
TAP	61	336	2
TAP	61	360	3
TAP	62	0	2
TAP	62	48	6
TAP	62	72	7
TAP	62	96	6
HLD	62	144	1	96
TAP	62	240	0
TAP	62	288	2
TAP	62	288	7
TAP	62	336	3
TAP	62	336	6
STR	63	0	4
SI_	63	0	4	96	48	1
STR	63	0	5
SI_	63	0	5	96	48	0
BRK	63	96	4
BRK	63	96	5
TAP	63	192	3
TAP	63	192	4
TAP	63	240	2
TAP	63	264	3
TAP	63	288	1
TAP	63	336	5
TAP	63	360	4
TAP	64	0	6
TAP	64	48	3
TAP	64	72	4
TAP	64	96	3
HLD	64	144	7	96
TAP	64	240	0
TAP	64	288	1
TAP	64	288	6
TAP	64	336	2
TAP	64	336	5
STR	65	0	3
SCL	65	0	3	96	48	0
STR	65	0	4
SCR	65	0	4	96	48	7
BRK	65	96	3
BRK	65	96	4
TAP	65	192	0
TAP	65	192	1
HLD	65	240	2	48
TAP	65	288	3
HLD	65	336	5	48
TAP	66	0	4
TAP	66	48	6
TAP	66	48	7
HLD	66	144	3	48
TAP	66	192	1
HLD	66	240	4	48
STR	66	288	6
SCR	66	288	6	96	48	1
TAP	66	336	6
TAP	67	96	0
TAP	67	96	7
TAP	67	192	2
TAP	67	192	5
HLD	67	240	1	48
TAP	67	288	0
HLD	67	336	6	48
TAP	68	0	7
TAP	68	48	3
TAP	68	48	4
HLD	68	144	2	48
HLD	68	192	3	48
HLD	68	240	4	48
HLD	68	288	5	48
HLD	68	336	0	48
TAP	69	0	7
TAP	69	48	3
TAP	69	48	4
BRK	69	96	1
BRK	69	96	6
TAP	69	192	6
TAP	69	192	7
HLD	69	240	5	48
TAP	69	288	4
HLD	69	336	2	48
TAP	70	0	3
TAP	70	48	0
TAP	70	48	1
HLD	70	144	4	48
TAP	70	192	6
HLD	70	240	3	48
STR	70	288	1
SCL	70	288	1	96	48	6
TAP	70	336	1
TAP	71	96	0
TAP	71	96	7
TAP	71	192	2
TAP	71	192	5
HLD	71	240	6	48
TAP	71	288	7
HLD	71	336	1	48
TAP	72	0	0
TAP	72	48	3
TAP	72	48	4
HLD	72	144	5	48
HLD	72	192	4	48
HLD	72	240	3	48
HLD	72	288	2	48
HLD	72	336	7	48
BRK	73	0	0
TAP	73	96	3
TAP	73	120	4
TAP	73	144	3
STR	73	168	4
SUL	73	168	4	96	504	3
STR	73	192	3
SCL	73	192	3	96	480	4

T_REC_TAP	501
T_REC_BRK	21
T_REC_XTP	0
T_REC_HLD	48
T_REC_XHO	0
T_REC_STR	61
T_REC_BST	0
T_REC_XST	0
T_REC_TTP	0
T_REC_THO	0
T_REC_SLD	61
T_REC_ALL	692
T_NUM_TAP	562
T_NUM_BRK	21
T_NUM_HLD	48
T_NUM_SLD	61
T_NUM_ALL	692
T_JUDGE_TAP	583
T_JUDGE_HLD	74
T_JUDGE_SLD	61
T_JUDGE_ALL	718
TTM_EACHPAIRS	164
TTM_SCR_TAP	281000
TTM_SCR_BRK	54600
TTM_SCR_HLD	48000
TTM_SCR_SLD	91500
TTM_SCR_ALL	475100
TTM_SCR_S	458850
TTM_SCR_SS	473000
TTM_RAT_ACV	10044

