VERSION	0.00.00	1.03.00
FES_MODE	0
BPM_DEF	128.000	128.000	128.000	128.000
MET_DEF	4	4
RESOLUTION	384
CLK_DEF	384
COMPATIBLE_CODE	MA2

BPM	0	0	128.000
MET	0	0	4	4

STR	2	0	0
SCR	2	0	0	96	384	3
STR	2	0	7
SCL	2	0	7	96	384	4
TAP	3	192	3
TAP	3	288	4
TAP	4	0	3
TAP	4	96	4
TAP	4	192	3
TAP	4	288	4
TAP	5	0	3
TAP	5	0	4
TAP	5	96	3
TAP	5	96	4
TAP	5	192	2
TAP	5	192	5
TAP	5	288	2
TAP	5	288	5
TAP	6	0	2
TAP	6	0	5
TAP	6	96	2
TAP	6	96	5
TAP	6	192	3
TAP	6	192	4
TAP	6	288	3
TAP	6	288	4
TAP	7	0	2
TAP	7	0	5
TAP	7	96	2
TAP	7	96	5
TAP	7	192	2
TAP	7	192	6
TAP	7	288	1
TAP	7	288	5
TAP	8	0	2
TAP	8	0	6
TAP	8	96	1
TAP	8	96	5
TAP	8	192	2
TAP	8	192	6
TAP	8	288	1
TAP	8	288	5
TAP	9	0	3
TAP	9	0	4
TAP	9	96	2
TAP	9	96	5
TAP	9	192	2
TAP	9	192	6
TAP	9	288	1
TAP	9	288	5
TAP	10	0	2
TAP	10	0	6
TAP	10	96	1
TAP	10	96	5
TAP	10	192	2
TAP	10	192	6
TAP	10	288	1
TAP	10	288	5
TAP	11	0	3
TAP	11	0	4
TAP	11	96	1
TAP	11	96	6
HLD	11	192	1	96
TAP	11	288	6
TAP	12	0	3
TAP	12	0	4
TAP	12	96	1
TAP	12	96	6
TAP	12	192	0
HLD	12	192	6	576
TAP	12	288	3
TAP	13	0	5
TAP	13	96	3
TAP	13	192	1
TAP	13	288	5
TAP	14	0	1
TAP	14	96	5
TAP	14	96	6
TAP	14	192	3
HLD	14	192	5	96
TAP	14	288	7
TAP	15	0	2
HLD	15	0	5	96
TAP	15	96	0
STR	15	192	6
SUR	15	192	6	96	192	1
TAP	16	192	4
TAP	16	192	5
TAP	16	288	2
TAP	16	288	7
TAP	17	0	1
TAP	17	48	0
TAP	17	96	1
HLD	17	192	7	96
STR	17	288	0
SUR	17	288	0	96	192	3
TAP	18	336	6
BRK	19	48	1
STR	19	192	3
SCL	19	192	3	96	72	1
STR	20	0	4
SCR	20	0	4	96	72	6
HLD	20	192	1	96
TAP	20	288	6
TAP	21	0	2
TAP	21	0	5
TAP	21	96	2
TAP	21	96	5
TAP	21	192	4
HLD	21	192	5	96
TAP	21	288	1
HLD	22	0	2	96
TAP	22	0	3
TAP	22	96	6
TAP	22	192	1
TAP	22	192	6
TAP	22	288	0
TAP	22	288	7
TAP	23	0	1
TAP	23	0	6
TAP	23	96	1
TAP	23	96	6
STR	23	192	2
SUR	23	192	2	96	192	5
HLD	24	192	1	96
HLD	24	192	6	96
TAP	25	0	0
TAP	25	0	7
BRK	25	96	2
BRK	25	96	5
TAP	25	192	2
HLD	25	192	4	192
TAP	25	288	3
TAP	26	0	5
TAP	26	96	6
TAP	26	96	7
STR	26	192	0
SCR	26	192	0	96	48	2
STR	26	192	6
SCL	26	192	6	96	48	4
STR	27	0	1
SCR	27	0	1	96	48	3
STR	27	0	7
SCL	27	0	7	96	48	5
HLD	27	192	0	96
TAP	27	192	7
TAP	27	288	2
TAP	28	0	2
HLD	28	0	3	96
TAP	28	96	5
TAP	28	192	2
TAP	28	240	5
TAP	28	288	2
TAP	28	336	5
TAP	29	0	0
BRK	29	48	6
STR	29	96	6
SCR	29	96	6	96	96	1
HLD	30	0	2	96
STR	30	0	7
SI_	30	0	7	96	48	3
STR	30	192	0
SI_	30	192	0	96	48	4
HLD	30	192	5	96
TAP	31	0	2
TAP	31	0	5
TAP	31	96	1
TAP	31	96	6
TAP	31	192	3
TAP	31	192	4
TAP	31	288	0
TAP	31	288	7
TAP	32	0	1
TAP	32	0	6
HLD	32	96	6	288
TAP	32	192	0
TAP	32	288	7
HLD	33	0	0	96
TAP	33	96	2
TAP	33	192	0
TAP	33	192	2
TAP	33	288	1
TAP	33	288	7
TAP	34	0	0
HLD	34	0	2	96
BRK	34	96	1
TAP	34	192	5
TAP	34	192	7
TAP	34	288	0
TAP	34	288	6
HLD	35	0	5	96
TAP	35	0	7
BRK	35	96	6
TAP	35	192	0
TAP	35	288	1
HLD	35	288	5	192
HLD	36	0	1	96
TAP	36	192	5
TAP	36	240	4
TAP	36	288	3
TAP	36	336	2
TAP	37	0	2
TAP	37	48	3
TAP	37	96	2
TAP	37	192	0
HLD	37	192	6	192
TAP	37	288	5
TAP	38	0	1
STR	38	96	3
SCL	38	96	3	96	96	0
STR	38	96	4
SCR	38	96	4	96	96	7
TAP	39	0	3
TAP	39	0	4
TAP	39	96	2
TAP	39	96	5
TAP	39	192	1
HLD	39	192	6	96
TAP	39	288	4
HLD	40	0	1	96
TAP	40	0	6
TAP	40	96	3
TAP	40	192	2
HLD	40	192	5	288
TAP	40	288	7
TAP	41	0	1
TAP	41	96	3
TAP	41	192	1
HLD	41	192	6	96
TAP	41	288	5
HLD	42	0	1	96
TAP	42	0	6
TAP	42	96	2
TAP	42	192	1
TAP	42	192	6
TAP	42	288	0
TAP	42	288	7
TAP	43	0	3
TAP	43	0	4
STR	43	96	6
SI_	43	96	6	96	48	1
STR	43	96	7
SI_	43	96	7	96	48	2
TAP	43	288	1
TAP	43	336	0
TAP	44	48	6
TAP	44	96	7
TAP	44	144	0
TAP	44	240	6
TAP	44	288	7
TAP	45	0	2
TAP	45	0	7
HLD	45	96	0	96
TAP	45	96	5
TAP	45	192	5
TAP	45	288	3
TAP	45	288	4
TAP	46	0	1
HLD	46	0	6	96
BRK	46	96	0
TAP	46	192	1
HLD	46	192	5	96
BRK	46	288	7
HLD	47	0	2	96
TAP	47	0	6
BRK	47	96	0
TAP	47	192	2
HLD	47	192	3	96
TAP	47	288	5
HLD	48	0	4	96
TAP	48	0	5
TAP	48	96	2
HLD	48	192	5	96
HLD	48	288	2	96
BRK	49	0	1
TAP	49	96	6
TAP	49	192	0
TAP	49	192	2
TAP	49	288	1
TAP	49	288	6
TAP	50	0	0
HLD	50	0	2	96
BRK	50	96	3
TAP	50	192	5
TAP	50	192	7
TAP	50	288	1
TAP	50	288	6
HLD	51	0	5	96
TAP	51	0	7
BRK	51	96	4
TAP	51	192	1
TAP	51	288	0
HLD	51	288	5	192
HLD	52	0	1	96
TAP	52	192	5
TAP	52	240	4
TAP	52	288	3
TAP	52	336	2
TAP	53	0	1
TAP	53	48	7
TAP	53	96	1
TAP	53	192	0
TAP	53	192	5
TAP	53	288	2
TAP	53	288	7
TAP	54	0	1
TAP	54	0	6
STR	54	96	3
SCL	54	96	3	96	96	0
STR	54	96	4
SCR	54	96	4	96	96	7
TAP	55	0	1
TAP	55	0	6
TAP	55	96	3
TAP	55	96	4
TAP	55	192	2
HLD	55	192	5	96
TAP	55	288	4
HLD	56	0	2	96
TAP	56	0	5
TAP	56	96	3
TAP	56	192	3
HLD	56	192	5	288
TAP	56	288	6
TAP	57	0	0
TAP	57	96	2
HLD	57	192	6	96
HLD	57	288	4	96
HLD	58	0	1	96
TAP	58	96	3
TAP	58	192	5
TAP	58	240	4
TAP	58	288	3
TAP	58	336	2
TAP	59	0	0
TAP	59	0	1
STR	59	96	6
SI_	59	96	6	96	48	1
STR	59	96	7
SI_	59	96	7	96	48	2
TAP	59	288	1
TAP	59	336	0
TAP	60	48	6
TAP	60	96	7
TAP	60	144	0
TAP	60	240	6
TAP	60	288	7
TAP	61	0	6
TAP	61	0	7
STR	61	96	6
SI_	61	96	6	96	48	1
STR	61	96	7
SI_	61	96	7	96	48	2
TAP	61	288	1
TAP	61	336	0
TAP	62	48	6
TAP	62	96	7
TAP	62	144	0
TAP	62	240	6
TAP	62	288	7
TAP	63	0	6
TAP	63	0	7
STR	63	96	6
SI_	63	96	6	96	48	1
STR	63	96	7
SI_	63	96	7	96	48	2
TAP	63	288	1
TAP	63	336	0
TAP	64	48	1
TAP	64	96	0
TAP	64	144	7
HLD	64	239	6	145
TAP	64	288	0
TAP	65	0	5
STR	65	192	0
SCR	65	192	0	96	576	7
STR	67	192	7
SCL	67	192	7	96	384	0
TAP	69	0	3
TAP	69	48	3
TAP	69	96	2
TAP	69	96	5
TAP	69	192	2
TAP	69	192	6
TAP	69	288	1
TAP	69	288	5
TAP	70	0	2
TAP	70	0	6
TAP	70	96	1
TAP	70	96	5
TAP	70	192	2
TAP	70	192	7
TAP	70	288	0
TAP	70	288	5
TAP	71	0	1
TAP	71	0	6
TAP	71	96	3
TAP	71	96	4
TAP	71	192	2
TAP	71	192	7
TAP	71	288	0
TAP	71	288	5
TAP	72	0	2
TAP	72	0	7
TAP	72	96	0
TAP	72	96	5
TAP	72	192	3
TAP	72	192	6
TAP	72	288	1
TAP	72	288	4
TAP	73	0	3
TAP	73	0	4
STR	73	96	3
SCL	73	96	3	96	192	0
STR	73	96	4
SCR	73	96	4	96	192	7

T_REC_TAP	298
T_REC_BRK	12
T_REC_XTP	0
T_REC_HLD	46
T_REC_XHO	0
T_REC_STR	30
T_REC_BST	0
T_REC_XST	0
T_REC_TTP	0
T_REC_THO	0
T_REC_SLD	30
T_REC_ALL	416
T_NUM_TAP	328
T_NUM_BRK	12
T_NUM_HLD	46
T_NUM_SLD	30
T_NUM_ALL	416
T_JUDGE_TAP	340
T_JUDGE_HLD	124
T_JUDGE_SLD	30
T_JUDGE_ALL	494
TTM_EACHPAIRS	126
TTM_SCR_TAP	164000
TTM_SCR_BRK	31200
TTM_SCR_HLD	46000
TTM_SCR_SLD	45000
TTM_SCR_ALL	286200
TTM_SCR_S	276450
TTM_SCR_SS	285000
TTM_RAT_ACV	10042

