VERSION	0.00.00	1.03.00
FES_MODE	0
BPM_DEF	128.000	128.000	128.000	128.000
MET_DEF	4	4
RESOLUTION	384
CLK_DEF	384
COMPATIBLE_CODE	MA2

BPM	0	0	128.000
MET	0	0	4	4

TAP	3	192	3
TAP	3	288	4
TAP	4	0	3
TAP	4	96	4
TAP	4	192	3
TAP	4	288	4
TAP	5	0	3
TAP	5	0	4
TAP	5	192	2
TAP	5	288	2
TAP	6	0	3
TAP	6	96	3
TAP	6	192	2
TAP	6	192	3
TAP	6	288	2
TAP	6	288	3
TAP	7	0	1
TAP	7	0	4
TAP	7	192	5
TAP	7	288	5
TAP	8	0	4
TAP	8	96	4
TAP	8	192	4
TAP	8	192	5
TAP	8	288	4
TAP	8	288	5
TAP	9	0	3
TAP	9	0	6
TAP	9	192	3
TAP	9	192	4
TAP	9	288	3
TAP	9	288	4
TAP	10	0	2
TAP	10	0	5
TAP	10	96	2
TAP	10	96	5
TAP	10	192	1
TAP	10	192	6
TAP	10	288	1
TAP	10	288	6
TAP	11	0	0
TAP	11	0	7
TAP	11	192	6
TAP	11	288	7
TAP	12	0	0
TAP	12	96	0
TAP	12	96	1
TAP	12	192	1
TAP	12	288	0
TAP	13	0	7
TAP	13	96	6
TAP	13	96	7
TAP	13	192	5
TAP	13	288	4
TAP	14	0	3
TAP	14	96	2
TAP	14	192	3
TAP	14	288	4
HLD	15	0	5	96
TAP	15	192	6
TAP	15	288	6
TAP	16	0	7
TAP	16	96	7
TAP	16	192	0
TAP	16	288	0
TAP	17	0	1
TAP	17	96	1
TAP	17	192	2
TAP	17	288	3
STR	18	0	4
SCR	18	0	4	96	288	3
HLD	19	192	5	192
TAP	20	0	4
HLD	20	192	2	192
TAP	21	0	3
HLD	21	192	6	192
TAP	22	0	7
HLD	22	192	1	192
TAP	23	0	0
TAP	23	192	2
TAP	23	288	3
TAP	24	0	4
TAP	24	96	5
HLD	24	192	3	96
HLD	24	192	4	96
TAP	25	0	3
TAP	25	0	4
TAP	25	96	2
TAP	25	96	5
TAP	25	192	5
TAP	25	288	4
TAP	26	0	3
TAP	26	96	2
TAP	26	192	1
TAP	26	288	4
TAP	27	0	6
TAP	27	96	3
STR	27	192	0
SCR	27	192	0	96	96	3
STR	28	0	7
SCL	28	0	7	96	96	4
STR	28	192	0
SSL	28	192	0	96	192	4
TAP	29	192	5
TAP	29	288	6
TAP	30	0	7
TAP	30	96	0
TAP	30	192	1
TAP	30	288	2
TAP	31	0	3
TAP	31	96	4
TAP	31	192	3
TAP	31	288	2
TAP	32	0	1
TAP	32	96	0
TAP	32	192	7
TAP	32	288	6
TAP	33	0	4
TAP	33	0	5
TAP	33	192	2
TAP	33	288	1
TAP	34	0	0
TAP	34	96	7
TAP	34	192	6
TAP	34	288	5
TAP	35	0	4
TAP	35	96	3
TAP	35	192	4
TAP	35	288	5
TAP	36	0	6
TAP	36	96	7
TAP	36	192	0
TAP	36	288	1
BRK	37	0	2
BRK	37	0	3
TAP	37	192	3
TAP	37	288	2
TAP	38	0	1
TAP	38	96	0
TAP	38	96	7
TAP	38	192	6
TAP	38	288	5
TAP	39	0	4
TAP	39	96	3
TAP	39	96	4
TAP	39	192	5
TAP	39	288	7
TAP	40	0	1
TAP	40	96	3
TAP	40	192	3
TAP	40	192	4
TAP	40	288	2
TAP	40	288	5
TAP	41	0	1
TAP	41	0	6
TAP	41	192	4
TAP	41	288	5
TAP	42	0	6
TAP	42	96	0
TAP	42	96	7
TAP	42	192	1
TAP	42	288	2
TAP	43	0	3
HLD	43	96	3	96
HLD	43	96	4	96
TAP	43	288	2
TAP	44	0	0
TAP	44	96	6
TAP	44	192	4
TAP	44	288	3
TAP	44	288	4
TAP	45	0	2
TAP	45	0	5
BRK	45	96	1
BRK	45	96	6
TAP	45	192	0
TAP	45	288	0
TAP	45	288	1
TAP	46	0	0
TAP	46	96	0
TAP	46	96	1
TAP	46	192	7
TAP	46	288	6
TAP	46	288	7
TAP	47	0	7
TAP	47	96	6
TAP	47	96	7
TAP	47	192	5
TAP	47	288	4
TAP	47	288	5
TAP	48	0	2
TAP	48	96	2
TAP	48	96	3
TAP	48	192	3
TAP	48	192	4
TAP	48	288	2
TAP	48	288	5
TAP	49	0	1
TAP	49	0	6
TAP	49	192	0
TAP	49	192	1
TAP	49	288	0
TAP	49	288	1
TAP	50	0	6
TAP	50	0	7
TAP	50	96	6
TAP	50	96	7
TAP	50	192	0
TAP	50	192	7
TAP	50	288	1
TAP	50	288	6
TAP	51	0	2
TAP	51	0	5
TAP	51	96	3
TAP	51	96	4
TAP	51	192	4
TAP	51	192	5
TAP	51	288	4
TAP	51	288	5
TAP	52	0	2
TAP	52	0	3
TAP	52	96	2
TAP	52	96	3
TAP	52	192	0
TAP	52	192	1
TAP	52	288	0
TAP	52	288	7
BRK	53	0	6
BRK	53	0	7
HLD	53	192	1	96
TAP	53	288	0
HLD	54	0	6	96
TAP	54	96	7
HLD	54	192	1	96
TAP	54	288	0
HLD	55	0	6	96
TAP	55	96	7
HLD	55	192	2	96
TAP	55	288	3
HLD	56	0	5	96
TAP	56	96	4
HLD	56	192	2	96
TAP	56	288	3
TAP	57	0	4
TAP	57	0	5
HLD	57	192	5	96
TAP	57	288	3
HLD	58	0	2	96
TAP	58	96	4
TAP	58	192	3
TAP	58	192	4
TAP	58	288	2
TAP	58	288	5
BRK	59	0	1
BRK	59	0	6
STR	59	96	0
SI_	59	96	0	96	96	3
STR	59	96	7
SI_	59	96	7	96	96	4
TAP	60	0	3
TAP	60	0	4
TAP	60	96	4
TAP	60	96	5
TAP	60	192	2
TAP	60	192	3
TAP	60	288	1
TAP	60	288	4
TAP	61	0	0
TAP	61	0	5
STR	61	96	6
SI_	61	96	6	96	96	3
STR	61	96	7
SI_	61	96	7	96	96	2
TAP	62	0	4
TAP	62	0	5
TAP	62	96	2
TAP	62	96	3
TAP	62	192	4
TAP	62	192	5
TAP	62	288	3
TAP	62	288	6
TAP	63	0	2
TAP	63	0	7
STR	63	96	0
SI_	63	96	0	96	96	5
STR	63	96	1
SI_	63	96	1	96	96	4
TAP	64	0	2
TAP	64	0	3
TAP	64	96	4
TAP	64	96	5
STR	64	192	3
SCL	64	192	3	96	192	0
STR	64	192	4
SCR	64	192	4	96	192	7
TAP	65	192	0
TAP	65	288	7
TAP	66	0	0
TAP	66	96	7
TAP	66	192	0
TAP	66	288	7
TAP	67	0	0
TAP	67	0	7
TAP	67	192	1
TAP	67	288	0
TAP	67	288	1
TAP	68	0	0
TAP	68	96	0
TAP	68	96	1
TAP	68	192	2
TAP	68	192	7
TAP	68	288	3
TAP	68	288	6
TAP	69	0	4
TAP	69	0	5
TAP	69	192	6
TAP	69	288	6
TAP	69	288	7
TAP	70	0	7
TAP	70	96	6
TAP	70	96	7
TAP	70	192	0
TAP	70	192	5
TAP	70	288	1
TAP	70	288	4
TAP	71	0	2
TAP	71	0	3
TAP	71	192	3
TAP	71	192	4
TAP	71	288	2
TAP	72	0	3
TAP	72	0	4
TAP	72	96	5
TAP	72	192	3
TAP	72	192	4
TAP	72	288	2
TAP	72	288	5
TAP	73	0	1
TAP	73	0	6
TAP	73	96	0
TAP	73	96	7
BRK	73	192	0
BRK	73	192	7

T_REC_TAP	291
T_REC_BRK	10
T_REC_XTP	0
T_REC_HLD	18
T_REC_XHO	0
T_REC_STR	12
T_REC_BST	0
T_REC_XST	0
T_REC_TTP	0
T_REC_THO	0
T_REC_SLD	12
T_REC_ALL	343
T_NUM_TAP	303
T_NUM_BRK	10
T_NUM_HLD	18
T_NUM_SLD	12
T_NUM_ALL	343
T_JUDGE_TAP	313
T_JUDGE_HLD	44
T_JUDGE_SLD	12
T_JUDGE_ALL	369
TTM_EACHPAIRS	93
TTM_SCR_TAP	151500
TTM_SCR_BRK	26000
TTM_SCR_HLD	18000
TTM_SCR_SLD	18000
TTM_SCR_ALL	213500
TTM_SCR_S	206150
TTM_SCR_SS	212500
TTM_RAT_ACV	10047

