VERSION	0.00.00	1.03.00
FES_MODE	0
BPM_DEF	128.000	128.000	128.000	128.000
MET_DEF	4	4
RESOLUTION	384
CLK_DEF	384
COMPATIBLE_CODE	MA2

BPM	0	0	128.000
MET	0	0	4	4

TAP	5	192	3
TAP	5	192	4
TAP	6	0	3
TAP	6	0	4
TAP	6	192	3
TAP	6	192	4
TAP	7	0	3
TAP	7	0	4
TAP	7	192	4
TAP	8	0	3
TAP	8	192	4
TAP	9	0	3
TAP	9	0	4
TAP	9	192	3
TAP	10	0	4
TAP	10	192	3
TAP	11	0	3
TAP	11	0	4
TAP	11	192	1
TAP	12	0	2
TAP	12	0	5
TAP	12	192	0
TAP	13	0	6
TAP	13	192	1
TAP	14	0	1
TAP	14	192	1
TAP	15	0	0
TAP	15	0	5
TAP	15	192	6
TAP	16	192	4
TAP	17	0	1
TAP	17	192	0
TAP	17	288	7
TAP	18	0	1
TAP	18	0	6
TAP	18	192	3
TAP	18	192	4
TAP	19	0	0
TAP	19	0	1
TAP	19	192	2
TAP	20	0	5
TAP	20	192	2
TAP	21	0	3
TAP	21	0	4
TAP	21	192	2
TAP	21	192	6
TAP	22	0	1
TAP	22	0	5
TAP	22	192	2
TAP	22	192	5
TAP	23	0	1
TAP	23	0	6
STR	23	96	1
SI_	23	96	1	96	192	6
TAP	24	192	1
TAP	24	192	6
TAP	25	0	0
TAP	25	0	7
TAP	25	192	2
TAP	26	0	2
TAP	26	192	3
TAP	27	0	4
TAP	27	192	0
TAP	27	192	7
TAP	28	0	2
TAP	28	0	5
TAP	28	192	2
BRK	29	0	6
TAP	29	192	0
TAP	30	0	7
TAP	30	192	0
TAP	31	0	4
TAP	31	192	3
TAP	31	192	4
TAP	32	0	1
TAP	32	0	6
TAP	32	192	0
TAP	32	288	0
BRK	33	0	0
TAP	33	192	1
TAP	34	0	1
TAP	34	192	7
TAP	35	0	7
TAP	35	192	0
TAP	36	0	1
TAP	36	192	5
BRK	37	0	1
TAP	37	192	0
TAP	38	0	1
TAP	38	0	6
TAP	38	192	2
TAP	38	192	5
TAP	39	0	0
TAP	39	0	7
TAP	39	192	1
TAP	40	0	6
HLD	40	192	5	192
TAP	41	192	6
TAP	42	0	1
TAP	42	192	1
TAP	42	192	6
TAP	43	0	2
TAP	43	0	5
TAP	43	192	2
TAP	43	192	6
TAP	44	0	1
TAP	44	0	6
HLD	44	192	0	192
HLD	44	192	7	192
TAP	45	192	2
TAP	46	0	3
TAP	46	192	4
TAP	47	0	5
TAP	47	192	5
TAP	48	0	5
TAP	48	192	2
BRK	49	0	1
TAP	49	192	1
TAP	50	0	1
TAP	50	192	7
TAP	51	0	7
TAP	51	192	0
TAP	52	0	1
TAP	52	192	5
BRK	53	0	1
TAP	53	192	0
TAP	54	0	1
TAP	54	0	6
TAP	54	192	2
TAP	54	192	5
TAP	55	0	0
TAP	55	0	7
TAP	55	192	1
TAP	56	0	6
HLD	56	192	5	192
TAP	57	192	6
TAP	58	0	1
TAP	58	192	1
TAP	58	192	6
TAP	59	0	2
TAP	59	0	5
TAP	59	192	2
TAP	59	192	6
TAP	60	0	1
TAP	60	0	6
TAP	60	192	0
TAP	60	288	7
TAP	61	0	0
TAP	61	192	2
TAP	61	192	6
TAP	62	0	1
TAP	62	0	6
TAP	62	192	7
TAP	62	288	0
TAP	63	0	7
TAP	63	192	2
TAP	63	192	6
TAP	64	0	1
TAP	64	0	6
TAP	64	192	6
TAP	64	288	6
TAP	65	0	5
STR	65	96	5
SI_	65	96	5	96	192	0
HLD	67	192	3	192
TAP	68	192	2
TAP	69	0	2
TAP	69	0	5
TAP	69	192	4
TAP	70	0	3
TAP	70	192	4
TAP	71	0	3
TAP	71	0	4
TAP	71	192	3
TAP	72	0	4
TAP	72	192	3
TAP	73	0	3
TAP	73	0	4
BRK	73	192	2
BRK	73	192	5

T_REC_TAP	164
T_REC_BRK	7
T_REC_XTP	0
T_REC_HLD	5
T_REC_XHO	0
T_REC_STR	2
T_REC_BST	0
T_REC_XST	0
T_REC_TTP	0
T_REC_THO	0
T_REC_SLD	2
T_REC_ALL	180
T_NUM_TAP	166
T_NUM_BRK	7
T_NUM_HLD	5
T_NUM_SLD	2
T_NUM_ALL	180
T_JUDGE_TAP	173
T_JUDGE_HLD	20
T_JUDGE_SLD	2
T_JUDGE_ALL	195
TTM_EACHPAIRS	45
TTM_SCR_TAP	83000
TTM_SCR_BRK	18200
TTM_SCR_HLD	5000
TTM_SCR_SLD	3000
TTM_SCR_ALL	109200
TTM_SCR_S	105250
TTM_SCR_SS	108500
TTM_RAT_ACV	10064

