VERSION	0.00.00	1.03.00
FES_MODE	0
BPM_DEF	128.000	128.000	128.000	128.000
MET_DEF	4	4
RESOLUTION	384
CLK_DEF	384
COMPATIBLE_CODE	MA2

BPM	0	0	128.000
MET	0	0	4	4

HLD	2	0	1	384
HLD	3	0	2	384
HLD	4	0	3	96
HLD	4	96	4	96
HLD	4	192	5	96
HLD	4	288	6	96
STR	5	0	7
SCL	5	0	7	96	192	2
STR	6	0	1
SUR	6	0	1	96	192	4
STR	7	0	6
SUL	7	0	6	96	192	3
STR	7	288	2
SCL	7	288	2	96	384	5
STR	9	192	3
SCR	9	192	3	96	48	6
STR	9	192	4
SCL	9	192	4	96	48	1
TAP	10	0	3
TAP	10	0	7
TAP	10	48	6
TAP	10	96	5
TAP	10	144	0
TAP	10	144	4
TAP	10	192	1
TAP	10	240	2
STR	10	288	3
SI_	10	288	3	96	48	6
STR	11	0	4
SI_	11	0	4	96	48	1
STR	11	96	3
SI_	11	96	3	96	48	7
STR	11	192	4
SI_	11	192	4	96	48	0
TAP	12	0	0
TAP	12	0	4
TAP	12	48	1
TAP	12	96	2
TAP	12	144	3
TAP	12	144	7
TAP	12	192	6
TAP	12	240	5
STR	12	288	4
SI_	12	288	4	96	48	1
STR	13	0	3
SI_	13	0	3	96	48	6
STR	13	96	4
SI_	13	96	4	96	48	0
STR	13	192	3
SI_	13	192	3	96	48	7
TAP	14	0	4
STR	14	48	5
SI_	14	48	5	96	48	0
TAP	14	96	6
STR	14	240	2
SI_	14	240	2	96	48	7
TAP	14	288	1
STR	15	48	6
SI_	15	48	6	96	48	3
TAP	15	96	5
STR	15	240	1
SI_	15	240	1	96	48	4
TAP	15	288	2
STR	16	48	6
SUR	16	48	6	96	48	5
TAP	16	96	5
STR	16	240	1
SCL	16	240	1	96	144	2
TAP	16	288	2
TAP	17	192	3
TAP	17	192	4
TAP	17	288	2
TAP	17	288	5
HLD	18	0	6	288
STR	18	0	7
SI_	18	0	7	96	48	4
STR	18	192	7
SI_	18	192	7	96	48	5
STR	19	0	0
SI_	19	0	0	96	48	3
HLD	19	0	1	288
STR	19	192	0
SI_	19	192	0	96	48	2
STR	20	0	6
SSL	20	0	6	96	96	2
STR	20	192	1
SSR	20	192	1	96	96	5
STR	21	0	6
SSL	21	0	6	96	96	2
STR	21	192	1
SSR	21	192	1	96	96	5
STR	22	0	6
SI_	22	0	6	96	48	3
STR	22	192	1
SI_	22	192	1	96	48	4
STR	23	0	5
SI_	23	0	5	96	48	3
STR	23	192	2
SI_	23	192	2	96	48	4
STR	24	0	4
SV_	24	0	4	96	48	3
STR	24	192	2
SUL	24	192	2	96	48	5
STR	25	0	6
SCR	25	0	6	96	192	3
STR	26	0	3
SUL	26	0	3	96	96	4
STR	26	192	7
SSR	26	192	7	96	96	3
STR	27	0	0
SSL	27	0	0	96	96	4
STR	27	192	7
SSR	27	192	7	96	96	3
STR	28	0	0
SI_	28	0	0	96	96	3
STR	28	96	3
SI_	28	96	3	96	96	6
STR	28	192	6
SI_	28	192	6	96	96	1
STR	28	288	1
SCR	28	288	1	96	96	4
STR	29	0	4
SCR	29	0	4	96	96	7
STR	29	96	7
SCR	29	96	7	96	96	2
TAP	29	192	2
BRK	29	288	4
STR	30	0	0
SUL	30	0	0	96	48	3
STR	30	96	0
SCL	30	96	0	96	48	5
STR	30	192	0
SUL	30	192	0	96	48	3
STR	31	0	7
SUR	31	0	7	96	48	4
STR	31	96	7
SCR	31	96	7	96	48	2
STR	31	192	7
SUR	31	192	7	96	48	4
STR	32	0	5
SI_	32	0	5	96	48	0
STR	32	192	4
SI_	32	192	4	96	48	1
STR	33	0	0
SCL	33	0	0	96	192	2
STR	34	0	0
SV_	34	0	0	96	48	2
STR	34	96	1
SV_	34	96	1	96	48	3
STR	34	192	2
SV_	34	192	2	96	48	4
STR	34	288	3
SV_	34	288	3	96	48	5
STR	35	0	4
SV_	35	0	4	96	48	6
STR	35	96	5
SV_	35	96	5	96	48	7
STR	35	192	6
SV_	35	192	6	96	48	0
STR	36	0	7
SV_	36	0	7	96	48	5
STR	36	96	6
SV_	36	96	6	96	48	4
STR	36	192	5
SV_	36	192	5	96	48	3
STR	36	288	4
SV_	36	288	4	96	48	2
STR	37	0	3
SV_	37	0	3	96	48	1
STR	37	96	2
SV_	37	96	2	96	48	0
TAP	37	336	7
STR	37	360	0
SCL	37	360	0	96	120	4
TAP	38	0	1
TAP	38	336	0
STR	38	360	7
SCR	38	360	7	96	120	3
TAP	39	0	6
TAP	39	336	5
STR	39	360	4
SCR	39	360	4	96	120	0
TAP	40	0	3
TAP	40	336	2
STR	40	360	3
SI_	40	360	3	96	120	7
TAP	41	0	4
BRK	42	0	1
BRK	42	0	5
TAP	42	96	3
TAP	42	96	7
STR	42	192	1
SCR	42	192	1	96	48	3
STR	42	192	5
SCL	42	192	5	96	48	3
STR	42	288	1
SCL	42	288	1	96	48	7
STR	42	288	5
SCR	42	288	5	96	48	7
BRK	43	0	1
BRK	43	0	5
STR	43	192	2
SCR	43	192	2	96	48	4
STR	43	192	6
SCL	43	192	6	96	48	4
STR	43	288	2
SCL	43	288	2	96	48	0
STR	43	288	6
SCR	43	288	6	96	48	0
BRK	44	0	2
BRK	44	0	6
STR	44	192	7
SCR	44	192	7	96	96	2
STR	44	288	2
SCR	44	288	2	96	96	5
STR	45	0	5
SCR	45	0	5	96	96	0
STR	45	96	0
SCR	45	96	0	96	96	3
STR	45	192	3
SCR	45	192	3	96	96	6
STR	45	288	6
SUL	45	288	6	96	192	3
TAP	46	336	2
TAP	46	336	6
STR	46	360	1
SV_	46	360	1	96	168	7
STR	46	360	5
SV_	46	360	5	96	168	3
TAP	47	0	0
TAP	47	0	4
TAP	47	336	1
TAP	47	336	5
STR	47	360	2
SV_	47	360	2	96	168	0
STR	47	360	6
SV_	47	360	6	96	168	4
TAP	48	0	3
TAP	48	0	7
STR	49	0	6
SI_	49	0	6	96	96	2
STR	49	96	2
SI_	49	96	2	96	96	5
STR	49	192	5
SI_	49	192	5	96	96	1
STR	49	288	1
SCL	49	288	1	96	96	5
BRK	50	0	5
STR	50	192	0
SCL	50	192	0	96	48	5
STR	50	192	1
SCR	50	192	1	96	48	4
STR	50	288	1
SUR	50	288	1	96	48	6
STR	51	192	6
SCL	51	192	6	96	48	3
STR	51	192	7
SCR	51	192	7	96	48	2
STR	51	288	6
SUL	51	288	6	96	48	1
STR	52	192	1
SUR	52	192	1	96	48	6
STR	52	192	6
SCR	52	192	6	96	48	1
STR	53	0	0
SI_	53	0	0	96	48	2
STR	53	96	7
SI_	53	96	7	96	48	3
STR	53	192	0
SI_	53	192	0	96	48	4
STR	53	288	7
SI_	53	288	7	96	48	5
STR	54	0	0
SI_	54	0	0	96	48	3
STR	54	96	7
SI_	54	96	7	96	48	4
STR	54	288	6
SI_	54	288	6	96	48	1
STR	55	0	2
SI_	55	0	2	96	48	5
STR	55	96	7
SI_	55	96	7	96	48	3
STR	55	288	0
SI_	55	288	0	96	48	4
STR	56	0	0
SI_	56	0	0	96	48	6
STR	56	96	0
SV_	56	96	0	96	48	2
BRK	56	288	0
BRK	56	288	1
STR	57	0	0
SUR	57	0	0	96	288	4
STR	57	0	1
SI_	57	0	1	96	288	6
HLD	59	0	1	672
STR	59	0	7
SI_	59	0	7	96	48	4
STR	59	96	7
SI_	59	96	7	96	48	2
STR	59	192	7
SI_	59	192	7	96	48	5
STR	59	288	7
SI_	59	288	7	96	48	3
STR	60	0	7
SI_	60	0	7	96	48	4
STR	60	96	7
SI_	60	96	7	96	48	2
STR	60	192	7
SI_	60	192	7	96	48	5
STR	61	0	0
SI_	61	0	0	96	48	3
HLD	61	0	6	672
STR	61	96	0
SI_	61	96	0	96	48	5
STR	61	192	0
SI_	61	192	0	96	48	2
STR	61	288	0
SI_	61	288	0	96	48	4
STR	62	0	0
SI_	62	0	0	96	48	3
STR	62	96	0
SI_	62	96	0	96	48	5
STR	62	192	0
SI_	62	192	0	96	48	2
TAP	63	0	0
STR	63	0	7
SI_	63	0	7	96	48	4
TAP	63	96	0
STR	63	96	7
SI_	63	96	7	96	48	2
TAP	63	192	1
STR	63	192	7
SI_	63	192	7	96	48	5
TAP	63	288	1
STR	63	288	7
SI_	63	288	7	96	48	3
TAP	64	0	0
STR	64	0	7
SI_	64	0	7	96	48	4
TAP	64	96	0
STR	64	96	7
SI_	64	96	7	96	48	2
TAP	64	192	1
STR	64	192	7
SI_	64	192	7	96	48	5
TAP	64	288	1
STR	65	0	0
SI_	65	0	0	96	48	4
TAP	65	0	6
STR	65	96	0
SI_	65	96	0	96	48	2
TAP	65	96	6
STR	65	288	0
SUR	65	288	0	96	576	4
STR	65	288	6
SUL	65	288	6	96	576	2

T_REC_TAP	56
T_REC_BRK	10
T_REC_XTP	0
T_REC_HLD	10
T_REC_XHO	0
T_REC_STR	140
T_REC_BST	0
T_REC_XST	0
T_REC_TTP	0
T_REC_THO	0
T_REC_SLD	140
T_REC_ALL	356
T_NUM_TAP	196
T_NUM_BRK	10
T_NUM_HLD	10
T_NUM_SLD	140
T_NUM_ALL	356
T_JUDGE_TAP	206
T_JUDGE_HLD	64
T_JUDGE_SLD	140
T_JUDGE_ALL	410
TTM_EACHPAIRS	40
TTM_SCR_TAP	98000
TTM_SCR_BRK	26000
TTM_SCR_HLD	10000
TTM_SCR_SLD	210000
TTM_SCR_ALL	344000
TTM_SCR_S	332750
TTM_SCR_SS	343000
TTM_RAT_ACV	10029

