VERSION	0.00.00	1.03.00
FES_MODE	0
BPM_DEF	128.000	128.000	128.000	128.000
MET_DEF	4	4
RESOLUTION	384
CLK_DEF	384
COMPATIBLE_CODE	MA2

BPM	0	0	128.000
MET	0	0	4	4

STR	2	0	1
SUR	2	0	1	96	240	3
STR	3	0	6
SUL	3	0	6	96	240	4
HLD	4	0	2	96
HLD	4	192	5	96
STR	5	0	3
SCL	5	0	3	96	240	0
STR	5	0	4
SCR	5	0	4	96	240	7
TAP	6	0	1
TAP	6	96	2
TAP	6	192	2
TAP	6	192	3
TAP	7	0	6
TAP	7	96	5
TAP	7	192	4
TAP	7	192	5
TAP	7	288	3
STR	8	0	2
SCL	8	0	2	96	480	5
TAP	10	0	2
TAP	10	96	2
TAP	10	192	2
TAP	10	288	0
TAP	10	288	1
TAP	11	0	5
TAP	11	96	5
TAP	11	192	5
TAP	11	288	6
TAP	11	288	7
TAP	12	0	6
TAP	12	96	4
TAP	12	192	2
TAP	12	288	2
TAP	12	288	3
TAP	13	0	1
TAP	13	96	3
TAP	13	192	5
TAP	13	288	4
TAP	13	288	5
TAP	14	0	6
TAP	14	96	2
TAP	14	192	4
TAP	14	288	0
TAP	14	288	7
TAP	15	0	1
TAP	15	96	5
TAP	15	192	3
TAP	15	288	0
TAP	15	288	7
TAP	16	0	5
TAP	16	96	6
TAP	16	96	7
TAP	16	192	2
TAP	16	288	0
TAP	16	288	1
TAP	17	0	5
TAP	17	96	2
TAP	17	192	1
TAP	17	192	6
BRK	17	288	0
BRK	17	288	7
TAP	18	0	6
TAP	18	96	0
TAP	18	192	2
TAP	18	288	4
HLD	18	336	5	336
TAP	20	0	1
TAP	20	96	7
TAP	20	192	5
TAP	20	288	3
HLD	20	336	2	336
TAP	22	0	5
TAP	22	48	4
TAP	22	96	5
TAP	22	192	2
TAP	22	240	3
TAP	22	288	2
TAP	23	0	1
TAP	23	48	0
TAP	23	96	7
HLD	23	144	6	144
TAP	24	0	2
TAP	24	0	3
TAP	24	96	4
TAP	24	96	5
TAP	24	192	6
TAP	24	240	7
TAP	24	288	0
STR	24	336	1
SCL	24	336	1	96	240	4
TAP	26	0	2
TAP	26	96	3
TAP	26	192	4
HLD	26	288	5	384
HLD	26	336	0	336
TAP	28	0	5
TAP	28	96	4
TAP	28	192	3
HLD	28	288	2	384
HLD	28	336	7	336
TAP	30	0	6
TAP	30	48	7
TAP	30	96	6
TAP	30	192	1
TAP	30	240	0
TAP	30	288	1
TAP	31	0	6
TAP	31	48	7
TAP	31	96	0
HLD	31	144	1	144
TAP	32	0	4
TAP	32	0	5
TAP	32	96	2
TAP	32	96	3
TAP	32	192	1
TAP	32	240	0
TAP	32	288	7
STR	32	336	6
SCR	32	336	6	96	240	3
TAP	34	0	3
TAP	34	96	2
TAP	34	192	1
TAP	34	288	0
STR	35	0	7
SUR	35	0	7	96	192	4
TAP	36	0	4
TAP	36	96	5
TAP	36	192	6
TAP	36	288	7
STR	37	0	0
SUL	37	0	0	96	192	3
TAP	38	0	3
TAP	38	96	4
TAP	38	192	5
TAP	38	288	6
TAP	38	288	7
TAP	39	0	3
TAP	39	96	2
TAP	39	192	1
TAP	39	288	0
TAP	39	288	1
TAP	40	0	6
TAP	40	96	2
TAP	40	192	5
TAP	40	288	1
STR	41	0	0
SCR	41	0	0	96	192	3
STR	41	0	4
SCR	41	0	4	96	192	7
TAP	42	0	1
TAP	42	48	6
HLD	42	144	1	96
HLD	42	144	6	96
BRK	42	288	1
BRK	42	288	6
TAP	43	0	2
TAP	43	96	2
TAP	43	192	6
TAP	43	240	7
TAP	43	288	0
TAP	44	0	5
TAP	44	96	5
TAP	44	192	1
TAP	44	240	0
TAP	44	288	7
STR	45	0	6
SI_	45	0	6	96	72	4
STR	45	192	1
SI_	45	192	1	96	72	3
STR	46	0	3
SCL	46	0	3	96	144	0
STR	46	0	4
SCR	46	0	4	96	144	7
HLD	47	0	2	144
TAP	47	144	3
TAP	47	192	2
TAP	47	192	3
HLD	48	0	5	144
TAP	48	144	4
TAP	48	192	4
TAP	48	192	5
TAP	49	0	0
TAP	49	0	7
TAP	49	96	2
TAP	49	96	5
TAP	49	192	1
TAP	49	192	6
TAP	49	288	3
TAP	49	288	4
BRK	50	0	1
BRK	50	0	6
BRK	50	48	1
BRK	50	48	6
TAP	50	192	5
TAP	50	240	2
TAP	50	288	5
TAP	50	336	2
TAP	51	0	1
TAP	51	48	0
TAP	51	96	7
TAP	51	192	2
TAP	51	240	5
TAP	51	288	2
TAP	51	336	5
TAP	52	0	6
TAP	52	48	7
TAP	52	96	0
TAP	52	192	4
TAP	52	240	5
TAP	52	288	6
TAP	52	336	7
STR	53	0	0
SI_	53	0	0	96	72	3
STR	53	192	7
SI_	53	192	7	96	72	4
HLD	54	0	2	240
HLD	54	96	5	144
BRK	54	288	1
BRK	54	288	6
HLD	55	0	6	144
TAP	55	144	7
TAP	55	192	6
TAP	55	192	7
HLD	56	0	1	144
TAP	56	144	0
TAP	56	192	0
TAP	56	192	1
STR	56	288	0
SCL	56	288	0	96	288	5
STR	56	288	1
SCR	56	288	1	96	288	4
TAP	59	0	3
TAP	59	0	4
TAP	59	96	1
TAP	59	144	6
TAP	59	240	6
TAP	59	240	7
TAP	59	288	6
TAP	59	288	7
STR	59	336	6
SCL	59	336	6	96	144	3
STR	59	336	7
SCR	59	336	7	96	144	2
TAP	61	0	3
TAP	61	0	4
TAP	61	96	6
TAP	61	144	1
TAP	61	240	0
TAP	61	240	1
STR	61	288	0
SCL	61	288	0	96	144	5
STR	61	288	1
SCR	61	288	1	96	144	4
HLD	63	0	2	96
HLD	63	0	5	96
STR	63	144	1
SI_	63	144	1	96	48	3
STR	63	336	0
SI_	63	336	0	96	48	4
STR	64	144	7
SI_	64	144	7	96	48	3
STR	64	336	6
SI_	64	336	6	96	48	4
TAP	65	144	3
TAP	65	144	4
TAP	65	240	2
TAP	65	240	5
BRK	65	336	1
BRK	65	336	6

T_REC_TAP	185
T_REC_BRK	12
T_REC_XTP	0
T_REC_HLD	20
T_REC_XHO	0
T_REC_STR	27
T_REC_BST	0
T_REC_XST	0
T_REC_TTP	0
T_REC_THO	0
T_REC_SLD	27
T_REC_ALL	271
T_NUM_TAP	212
T_NUM_BRK	12
T_NUM_HLD	20
T_NUM_SLD	27
T_NUM_ALL	271
T_JUDGE_TAP	224
T_JUDGE_HLD	82
T_JUDGE_SLD	27
T_JUDGE_ALL	333
TTM_EACHPAIRS	46
TTM_SCR_TAP	106000
TTM_SCR_BRK	31200
TTM_SCR_HLD	20000
TTM_SCR_SLD	40500
TTM_SCR_ALL	197700
TTM_SCR_S	190650
TTM_SCR_SS	196500
TTM_RAT_ACV	10061

