VERSION	0.00.00	1.03.00
FES_MODE	0
BPM_DEF	128.000	128.000	128.000	128.000
MET_DEF	4	4
RESOLUTION	384
CLK_DEF	384
COMPATIBLE_CODE	MA2

BPM	0	0	128.000
MET	0	0	4	4

STR	2	0	1
SI_	2	0	1	96	192	6
STR	3	0	5
SI_	3	0	5	96	192	2
STR	4	0	0
SI_	4	0	0	96	192	5
STR	5	0	7
SI_	5	0	7	96	192	2
STR	6	0	3
SI_	6	0	3	96	192	0
STR	7	0	4
SI_	7	0	4	96	192	7
STR	8	0	2
SUR	8	0	2	96	288	5
BRK	9	192	7
BRK	9	288	7
TAP	10	0	0
TAP	10	96	2
TAP	10	192	4
TAP	11	0	7
TAP	11	96	5
TAP	11	192	3
TAP	12	0	1
TAP	12	96	0
TAP	12	192	7
TAP	13	0	5
TAP	13	96	4
TAP	13	192	3
TAP	13	288	2
TAP	13	288	3
TAP	14	0	0
TAP	14	96	1
TAP	14	192	2
TAP	14	288	3
TAP	15	0	7
TAP	15	96	6
TAP	15	192	5
TAP	15	288	4
TAP	16	0	2
TAP	16	96	5
TAP	16	192	1
TAP	16	288	6
HLD	17	0	0	192
BRK	17	192	7
BRK	17	288	7
HLD	18	0	6	288
TAP	19	0	0
TAP	19	96	2
TAP	19	192	4
TAP	19	288	2
HLD	20	0	1	288
TAP	21	0	7
TAP	21	96	5
TAP	21	192	3
TAP	21	288	5
STR	22	0	6
SCR	22	0	6	96	192	1
STR	23	0	2
SCR	23	0	2	96	192	5
STR	24	0	0
SI_	24	0	0	96	192	4
STR	25	0	7
SI_	25	0	7	96	192	3
TAP	26	0	0
TAP	26	96	0
STR	26	192	0
SCR	26	192	0	96	72	2
TAP	27	0	7
TAP	27	96	7
STR	27	192	7
SCL	27	192	7	96	72	5
TAP	28	0	2
TAP	28	96	2
STR	28	192	2
SCR	28	192	2	96	72	4
TAP	29	0	5
TAP	29	96	5
STR	29	192	5
SCL	29	192	5	96	72	3
TAP	30	0	0
TAP	30	96	0
STR	30	192	0
SI_	30	192	0	96	72	2
TAP	31	0	7
TAP	31	96	7
STR	31	192	7
SI_	31	192	7	96	72	5
STR	32	0	2
SI_	32	0	2	96	72	4
STR	32	192	5
SI_	32	192	5	96	72	3
HLD	33	0	0	288
HLD	34	0	1	384
HLD	35	0	7	384
HLD	36	0	0	384
HLD	37	0	6	288
HLD	38	0	2	384
HLD	39	0	4	384
HLD	40	0	3	384
HLD	41	0	5	384
BRK	42	192	0
BRK	42	192	7
BRK	42	288	0
STR	42	288	7
SI_	42	288	7	96	72	3
TAP	43	192	0
STR	43	288	0
SI_	43	288	0	96	72	4
TAP	44	192	7
TAP	44	288	7
TAP	45	0	7
TAP	45	96	6
TAP	45	192	5
TAP	45	288	4
TAP	46	0	3
TAP	46	96	2
TAP	46	192	1
BRK	46	288	0
TAP	47	0	7
STR	47	96	7
SI_	47	96	7	96	72	3
TAP	48	0	0
STR	48	96	0
SI_	48	96	0	96	72	4
TAP	49	0	0
TAP	49	0	1
TAP	49	96	0
TAP	49	96	1
TAP	49	192	6
TAP	49	192	7
TAP	49	288	6
TAP	49	288	7
TAP	50	0	0
TAP	50	0	7
TAP	50	96	1
TAP	50	96	6
TAP	50	192	2
TAP	50	192	5
STR	50	288	3
SI_	50	288	3	96	72	0
STR	50	288	4
SI_	50	288	4	96	72	7
TAP	51	192	0
TAP	51	192	1
STR	51	288	0
SI_	51	288	0	96	72	5
STR	51	288	1
SI_	51	288	1	96	72	4
TAP	52	192	6
TAP	52	192	7
STR	52	288	6
SI_	52	288	6	96	72	3
STR	52	288	7
SI_	52	288	7	96	72	2
TAP	53	192	4
TAP	53	192	5
TAP	54	0	6
TAP	54	0	7
TAP	54	192	0
TAP	54	192	1
BRK	54	288	0
BRK	54	288	7
TAP	55	0	1
TAP	55	96	1
TAP	55	192	1
TAP	55	288	0
TAP	55	288	7
TAP	56	0	6
TAP	56	96	6
TAP	56	192	6
TAP	56	288	0
TAP	56	288	7
HLD	57	0	1	576
HLD	57	0	6	576
BRK	58	288	0
BRK	58	288	7
TAP	59	0	7
TAP	59	96	5
TAP	59	192	3
TAP	60	0	0
TAP	60	96	2
TAP	60	192	4
TAP	61	0	6
TAP	61	96	7
TAP	61	192	0
TAP	62	0	2
TAP	62	96	3
TAP	62	192	4
TAP	62	288	4
TAP	62	288	5
TAP	63	0	7
TAP	63	96	6
TAP	63	192	5
TAP	63	288	4
TAP	64	0	0
TAP	64	96	1
TAP	64	192	2
TAP	64	288	3
TAP	65	0	5
TAP	65	96	2
TAP	65	192	6
STR	65	288	1
SCL	65	288	1	96	480	4

T_REC_TAP	117
T_REC_BRK	12
T_REC_XTP	0
T_REC_HLD	14
T_REC_XHO	0
T_REC_STR	30
T_REC_BST	0
T_REC_XST	0
T_REC_TTP	0
T_REC_THO	0
T_REC_SLD	30
T_REC_ALL	203
T_NUM_TAP	147
T_NUM_BRK	12
T_NUM_HLD	14
T_NUM_SLD	30
T_NUM_ALL	203
T_JUDGE_TAP	159
T_JUDGE_HLD	108
T_JUDGE_SLD	30
T_JUDGE_ALL	297
TTM_EACHPAIRS	24
TTM_SCR_TAP	73500
TTM_SCR_BRK	31200
TTM_SCR_HLD	14000
TTM_SCR_SLD	45000
TTM_SCR_ALL	163700
TTM_SCR_S	157650
TTM_SCR_SS	162500
TTM_RAT_ACV	10073

