VERSION	0.00.00	1.03.00
FES_MODE	0
BPM_DEF	128.000	128.000	128.000	128.000
MET_DEF	4	4
RESOLUTION	384
CLK_DEF	384
COMPATIBLE_CODE	MA2

BPM	0	0	128.000
MET	0	0	4	4

TAP	2	0	0
TAP	3	0	7
TAP	4	0	0
TAP	4	192	0
HLD	5	0	1	192
TAP	6	0	2
TAP	6	0	3
TAP	7	0	4
TAP	7	0	5
STR	8	0	6
SI_	8	0	6	96	288	2
TAP	10	0	1
TAP	10	192	1
TAP	11	0	0
TAP	12	0	7
TAP	12	192	7
TAP	13	0	6
TAP	14	0	5
TAP	14	192	5
TAP	15	0	4
TAP	15	192	4
TAP	16	0	3
TAP	16	192	3
BRK	17	0	2
TAP	18	0	0
TAP	18	192	0
HLD	19	0	1	192
TAP	20	0	2
TAP	20	192	2
HLD	21	0	3	192
TAP	22	0	4
TAP	22	192	4
HLD	23	0	5	192
TAP	24	0	6
TAP	24	192	6
HLD	25	0	7	192
TAP	26	0	0
TAP	26	96	0
TAP	27	0	7
TAP	27	96	7
TAP	28	0	6
TAP	28	96	6
HLD	29	0	5	192
TAP	30	0	4
TAP	30	96	4
TAP	31	0	3
TAP	31	96	3
TAP	32	0	2
TAP	32	96	2
HLD	33	0	1	192
TAP	34	0	0
TAP	34	192	0
TAP	35	0	0
TAP	35	0	1
TAP	35	192	0
TAP	35	192	1
TAP	36	0	2
TAP	36	192	2
HLD	37	0	2	192
HLD	37	0	3	192
TAP	38	0	4
TAP	38	192	4
TAP	39	0	4
TAP	39	0	5
TAP	39	192	4
TAP	39	192	5
TAP	40	0	6
TAP	40	192	6
STR	41	0	7
SI_	41	0	7	96	288	2
BRK	43	0	0
BRK	44	0	7
TAP	45	0	0
TAP	45	96	0
TAP	45	192	7
TAP	45	288	7
HLD	46	0	1	192
HLD	46	0	6	192
TAP	47	0	2
TAP	47	96	2
TAP	47	192	2
TAP	48	0	3
TAP	48	96	3
TAP	48	192	3
TAP	49	0	4
TAP	49	192	5
TAP	50	0	4
TAP	50	0	5
BRK	51	0	7
BRK	52	0	0
TAP	53	0	7
TAP	53	96	7
TAP	53	192	0
TAP	53	288	0
HLD	54	0	1	192
HLD	54	0	6	192
TAP	55	0	5
TAP	55	96	5
TAP	55	192	5
TAP	56	0	4
TAP	56	96	4
TAP	56	192	4
STR	57	0	3
SI_	57	0	3	96	288	0
TAP	59	0	1
TAP	59	192	1
HLD	60	0	0	192
HLD	60	0	1	192
TAP	61	0	7
TAP	61	192	7
HLD	62	0	6	192
HLD	62	0	7	192
TAP	63	0	6
TAP	63	192	5
TAP	64	0	4
TAP	64	192	3
TAP	65	0	2
STR	65	192	2
SI_	65	192	2	96	288	5

T_REC_TAP	89
T_REC_BRK	5
T_REC_XTP	0
T_REC_HLD	17
T_REC_XHO	0
T_REC_STR	4
T_REC_BST	0
T_REC_XST	0
T_REC_TTP	0
T_REC_THO	0
T_REC_SLD	4
T_REC_ALL	119
T_NUM_TAP	93
T_NUM_BRK	5
T_NUM_HLD	17
T_NUM_SLD	4
T_NUM_ALL	119
T_JUDGE_TAP	98
T_JUDGE_HLD	68
T_JUDGE_SLD	4
T_JUDGE_ALL	170
TTM_EACHPAIRS	12
TTM_SCR_TAP	46500
TTM_SCR_BRK	13000
TTM_SCR_HLD	17000
TTM_SCR_SLD	6000
TTM_SCR_ALL	82500
TTM_SCR_S	79550
TTM_SCR_SS	82000
TTM_RAT_ACV	10060

