VERSION	0.00.00	1.03.00
FES_MODE	0
BPM_DEF	186.000	186.000	186.000	186.000
MET_DEF	4	4
RESOLUTION	384
CLK_DEF	384
COMPATIBLE_CODE	MA2

BPM	0	0	186.000
MET	0	0	4	4

BRK	2	0	5
BRK	2	0	6
TAP	2	48	5
TAP	2	48	6
TAP	2	144	4
TAP	2	144	7
TAP	2	192	0
TAP	2	192	3
BRK	2	288	0
BRK	2	288	7
TAP	2	336	0
TAP	2	336	7
TAP	3	48	1
TAP	3	48	6
TAP	3	96	2
TAP	3	96	5
TAP	3	192	4
TAP	3	240	3
TAP	3	288	2
TAP	3	336	1
HLD	4	0	1	144
TAP	4	96	7
HLD	4	144	7	192
TAP	4	288	5
HLD	4	336	5	192
TAP	5	96	3
HLD	5	144	3	192
STR	5	288	2
SCL	5	288	2	96	288	5
HLD	5	336	2	720
TAP	7	288	5
TAP	8	0	1
TAP	8	0	2
TAP	8	48	3
TAP	8	96	4
TAP	8	144	5
TAP	8	144	7
TAP	8	240	6
TAP	8	288	5
TAP	8	336	1
TAP	8	336	4
TAP	9	48	3
TAP	9	96	5
TAP	9	144	2
TAP	9	144	6
TAP	9	240	5
TAP	9	288	3
STR	9	336	0
SCR	9	336	0	96	240	3
STR	9	336	4
SCR	9	336	4	96	240	7
TAP	11	0	3
TAP	11	0	5
TAP	11	96	2
TAP	11	96	4
TAP	11	192	3
TAP	11	240	4
TAP	11	288	2
TAP	11	288	5
HLD	12	0	0	96
TAP	12	0	1
TAP	12	96	1
TAP	12	192	6
HLD	12	192	7	96
TAP	12	288	6
STR	13	0	4
SI_	13	0	4	96	48	2
STR	13	96	4
SI_	13	96	4	96	48	1
STR	13	192	4
SI_	13	192	4	96	48	0
TAP	14	0	1
STR	14	0	2
SUR	14	0	2	96	48	7
STR	14	192	5
SUL	14	192	5	96	48	0
TAP	14	192	6
TAP	15	0	2
TAP	15	0	5
STR	15	96	2
SV_	15	96	2	96	48	0
STR	15	96	5
SV_	15	96	5	96	48	7
TAP	16	0	0
TAP	16	96	7
HLD	16	144	7	144
TAP	16	288	5
TAP	17	0	7
TAP	17	96	0
HLD	17	144	0	144
TAP	17	288	2
TAP	18	0	0
TAP	18	96	6
HLD	18	144	6	144
TAP	18	288	4
TAP	19	0	2
TAP	19	48	3
TAP	19	96	4
HLD	19	144	5	144
TAP	19	288	6
STR	20	0	1
SI_	20	0	1	96	48	4
STR	20	144	0
SI_	20	144	0	96	48	5
TAP	20	288	3
STR	21	0	6
SI_	21	0	6	96	48	3
STR	21	144	7
SI_	21	144	7	96	48	2
TAP	21	288	4
STR	22	0	2
SI_	22	0	2	96	48	6
STR	22	144	5
SI_	22	144	5	96	48	1
TAP	22	288	7
TAP	23	0	5
TAP	23	48	4
TAP	23	96	3
HLD	23	144	2	144
TAP	23	288	1
TAP	24	0	2
TAP	24	48	3
TAP	24	96	2
TAP	24	192	5
TAP	24	240	4
TAP	24	288	5
TAP	25	0	2
TAP	25	48	3
TAP	25	96	4
HLD	25	144	5	144
TAP	25	240	0
TAP	25	288	0
TAP	26	0	6
TAP	26	48	5
TAP	26	96	6
TAP	26	192	1
TAP	26	240	2
TAP	26	288	1
TAP	27	0	5
TAP	27	48	4
TAP	27	96	3
HLD	27	144	2	144
TAP	27	240	7
TAP	27	288	7
HLD	28	0	2	96
HLD	28	96	4	96
TAP	28	192	5
TAP	28	288	4
TAP	28	288	6
HLD	29	0	5	96
HLD	29	96	3	96
TAP	29	192	2
TAP	29	288	1
TAP	29	288	3
STR	30	0	1
SUR	30	0	1	96	192	4
TAP	31	0	5
TAP	31	48	4
TAP	31	96	3
HLD	31	144	0	144
HLD	31	144	1	144
TAP	32	0	0
TAP	32	0	1
TAP	32	48	0
TAP	32	48	1
STR	32	144	2
SCR	32	144	2	96	48	5
HLD	32	144	7	480
TAP	33	0	6
TAP	33	48	6
TAP	33	144	0
TAP	33	240	0
TAP	34	0	4
TAP	34	0	5
TAP	34	48	4
TAP	34	48	5
HLD	34	144	3	480
STR	34	144	6
SCR	34	144	6	96	48	1
TAP	35	0	2
TAP	35	48	2
TAP	35	144	4
TAP	35	240	4
STR	36	0	1
SCR	36	0	1	96	96	4
STR	36	96	4
SCR	36	96	4	96	96	7
STR	36	192	7
SCR	36	192	7	96	96	2
STR	37	0	6
SCL	37	0	6	96	96	3
STR	37	96	3
SCL	37	96	3	96	96	0
STR	37	192	0
SCL	37	192	0	96	96	5
TAP	38	0	1
TAP	38	64	2
TAP	38	128	1
TAP	38	192	6
TAP	38	256	5
TAP	38	320	6
TAP	39	0	0
TAP	39	64	7
TAP	39	128	0
TAP	39	192	1
TAP	39	192	6
BRK	39	288	0
STR	40	0	0
SI_	40	0	0	96	48	5
TAP	40	96	7
STR	40	192	6
SI_	40	192	6	96	48	2
TAP	40	288	7
TAP	41	0	0
TAP	41	48	1
TAP	41	96	2
STR	41	144	3
SI_	41	144	3	96	48	7
STR	42	0	7
SI_	42	0	7	96	48	2
TAP	42	96	0
STR	42	192	1
SI_	42	192	1	96	48	5
TAP	42	288	0
TAP	43	0	7
TAP	43	48	6
TAP	43	96	5
STR	43	144	4
SI_	43	144	4	96	48	0
HLD	44	0	0	96
STR	44	0	1
SCR	44	0	1	96	48	4
STR	44	192	6
SCL	44	192	6	96	48	3
HLD	44	192	7	96
STR	45	0	1
SI_	45	0	1	96	48	4
STR	45	48	0
SI_	45	48	0	96	48	5
TAP	45	240	3
TAP	45	240	5
TAP	45	288	2
TAP	45	288	6
STR	45	336	1
SV_	45	336	1	96	144	4
STR	45	336	7
SV_	45	336	7	96	144	4
STR	46	336	2
SI_	46	336	2	96	144	6
STR	46	336	5
SI_	46	336	5	96	144	3
TAP	48	0	2
TAP	48	48	3
TAP	48	96	4
TAP	48	144	5
TAP	48	192	1
TAP	48	240	0
TAP	48	288	7
TAP	48	336	6
TAP	49	0	1
TAP	49	0	5
TAP	49	48	2
TAP	49	48	6
TAP	49	96	3
TAP	49	96	7
STR	49	144	0
SCL	49	144	0	96	48	5
STR	49	144	4
SCL	49	144	4	96	48	1
TAP	50	0	5
TAP	50	48	4
TAP	50	96	3
TAP	50	144	2
TAP	50	192	6
TAP	50	240	7
TAP	50	288	0
TAP	50	336	1
TAP	51	0	2
TAP	51	0	6
TAP	51	48	1
TAP	51	48	5
TAP	51	96	0
TAP	51	96	4
STR	51	144	3
SCR	51	144	3	96	48	6
STR	51	144	7
SCR	51	144	7	96	48	2
TAP	52	0	7
TAP	52	48	6
TAP	52	96	0
TAP	52	144	1
TAP	52	192	5
TAP	52	240	4
TAP	52	288	2
TAP	52	336	3
TAP	53	0	6
TAP	53	0	7
TAP	53	48	0
TAP	53	48	5
TAP	53	96	1
TAP	53	96	4
TAP	53	144	2
TAP	53	144	3
TAP	53	240	6
TAP	53	288	7
HLD	53	336	0	96
TAP	54	144	1
TAP	54	192	3
TAP	54	240	5
TAP	54	288	7
STR	54	336	7
SI_	54	336	7	96	48	4
STR	55	48	0
SI_	55	48	0	96	48	3
STR	55	144	6
SCR	55	144	6	96	48	1
STR	55	240	2
SI_	55	240	2	96	48	6
STR	55	336	5
SCL	55	336	5	96	48	2
TAP	56	192	3
TAP	56	240	4
TAP	56	288	2
TAP	56	288	5
BRK	57	0	0
BRK	57	0	1
BRK	57	48	0
BRK	57	48	1
BRK	57	144	6
BRK	57	144	7
BRK	57	192	6
BRK	57	192	7
BRK	57	288	2
BRK	57	288	7
BRK	57	336	2
BRK	57	336	7
BRK	58	48	0
BRK	58	48	5
BRK	58	96	0
BRK	58	96	5
TAP	58	192	3
TAP	58	240	4
TAP	58	288	5
TAP	58	336	6
TAP	59	0	5
TAP	59	0	6
TAP	59	48	4
TAP	59	96	3
TAP	59	144	0
TAP	59	144	2
TAP	59	240	1
TAP	59	288	2
TAP	59	336	3
TAP	59	336	6
TAP	60	48	4
TAP	60	96	2
TAP	60	144	1
TAP	60	144	5
TAP	60	240	2
TAP	60	288	4
HLD	60	336	0	336
HLD	60	336	5	336
TAP	62	0	0
TAP	62	96	0
TAP	62	192	4
TAP	62	240	3
TAP	62	288	2
TAP	62	288	5
TAP	63	0	2
TAP	63	48	3
TAP	63	96	4
TAP	63	144	5
HLD	63	144	6	96
TAP	63	240	5
TAP	63	288	3
HLD	63	336	1	96
TAP	63	336	2
TAP	64	48	3
TAP	64	96	5
TAP	64	144	6
HLD	64	144	7	96
TAP	64	240	5
TAP	64	288	3
STR	64	336	0
SUR	64	336	0	96	240	7
STR	64	336	1
SUR	64	336	1	96	240	6
TAP	66	0	0
TAP	66	48	7
TAP	66	96	1
TAP	66	144	6
TAP	66	192	2
TAP	66	240	5
BRK	66	288	3
BRK	66	288	4
TAP	67	0	0
TAP	67	0	1
TAP	67	48	0
TAP	67	48	1
TAP	67	144	6
TAP	67	144	7
TAP	67	192	6
TAP	67	192	7
TAP	67	288	1
TAP	67	288	4
TAP	67	336	1
TAP	67	336	4
TAP	68	48	3
TAP	68	48	6
TAP	68	96	3
TAP	68	96	6
TAP	68	192	0
TAP	68	240	7
TAP	68	288	0
BRK	68	336	1
BRK	68	336	6

T_REC_TAP	261
T_REC_BRK	25
T_REC_XTP	0
T_REC_HLD	30
T_REC_XHO	0
T_REC_STR	50
T_REC_BST	0
T_REC_XST	0
T_REC_TTP	0
T_REC_THO	0
T_REC_SLD	50
T_REC_ALL	416
T_NUM_TAP	311
T_NUM_BRK	25
T_NUM_HLD	30
T_NUM_SLD	50
T_NUM_ALL	416
T_JUDGE_TAP	336
T_JUDGE_HLD	115
T_JUDGE_SLD	50
T_JUDGE_ALL	501
TTM_EACHPAIRS	79
TTM_SCR_TAP	155500
TTM_SCR_BRK	65000
TTM_SCR_HLD	30000
TTM_SCR_SLD	75000
TTM_SCR_ALL	325500
TTM_SCR_S	313350
TTM_SCR_SS	323000
TTM_RAT_ACV	10077

