VERSION	0.00.00	1.03.00
FES_MODE	0
BPM_DEF	186.000	186.000	186.000	186.000
MET_DEF	4	4
RESOLUTION	384
CLK_DEF	384
COMPATIBLE_CODE	MA2

BPM	0	0	186.000
MET	0	0	4	4

TAP	1	192	5
TAP	1	288	2
TAP	2	0	3
TAP	2	0	5
TAP	2	48	3
TAP	2	48	5
TAP	2	144	2
TAP	2	144	4
TAP	2	192	2
TAP	2	192	4
TAP	2	288	3
TAP	2	288	5
TAP	2	336	3
TAP	2	336	5
TAP	3	48	2
TAP	3	48	4
TAP	3	96	2
TAP	3	96	4
TAP	3	192	6
TAP	3	240	2
STR	3	288	4
SI_	3	288	4	96	96	0
TAP	3	336	4
STR	4	288	6
SI_	4	288	6	96	96	2
TAP	4	336	6
STR	5	288	1
SI_	5	288	1	96	96	5
TAP	5	336	1
TAP	7	0	0
TAP	7	96	0
TAP	7	192	0
BRK	7	288	0
BRK	7	288	7
TAP	8	0	1
TAP	8	48	2
TAP	8	96	3
TAP	8	144	4
TAP	8	240	6
TAP	8	288	5
TAP	8	336	4
TAP	9	48	2
TAP	9	96	1
TAP	9	144	0
TAP	9	240	6
TAP	9	288	0
HLD	9	336	7	432
TAP	11	0	0
TAP	11	96	0
TAP	11	192	0
BRK	11	288	0
BRK	11	288	7
TAP	12	0	4
TAP	12	0	5
TAP	12	96	0
TAP	12	96	1
TAP	12	192	2
TAP	12	192	3
TAP	12	288	6
TAP	12	288	7
TAP	13	0	4
TAP	13	0	5
STR	13	96	4
SI_	13	96	4	96	96	1
STR	13	96	5
SI_	13	96	5	96	96	0
TAP	14	0	2
TAP	14	0	3
TAP	14	96	6
TAP	14	96	7
TAP	14	192	4
TAP	14	192	5
TAP	14	288	0
TAP	14	288	1
STR	15	0	3
SI_	15	0	3	96	96	0
STR	15	0	4
SI_	15	0	4	96	96	7
TAP	16	0	1
TAP	16	96	4
TAP	16	192	5
TAP	16	288	4
TAP	17	0	6
TAP	17	96	3
TAP	17	192	2
TAP	17	288	3
TAP	18	0	2
TAP	18	96	4
TAP	18	192	5
TAP	18	288	3
TAP	19	0	2
TAP	19	96	4
TAP	19	192	5
TAP	19	288	3
TAP	20	0	2
TAP	20	96	1
TAP	20	192	0
TAP	20	288	6
TAP	20	288	7
TAP	21	0	5
TAP	21	96	6
TAP	21	192	7
TAP	21	288	0
TAP	21	288	1
TAP	22	0	2
TAP	22	96	7
TAP	22	192	5
TAP	22	288	0
TAP	23	0	2
TAP	23	96	7
TAP	23	192	5
STR	23	288	0
SI_	23	288	0	96	96	6
STR	24	96	1
SI_	24	96	1	96	96	5
STR	24	288	2
SI_	24	288	2	96	96	4
STR	25	288	0
SI_	25	288	0	96	96	2
STR	26	96	7
SI_	26	96	7	96	96	3
STR	26	288	6
SI_	26	288	6	96	96	4
TAP	27	288	5
TAP	28	0	1
BRK	28	96	0
BRK	28	96	1
BRK	28	192	0
BRK	28	192	1
TAP	28	288	2
TAP	29	0	6
BRK	29	96	6
BRK	29	96	7
BRK	29	192	6
BRK	29	192	7
STR	29	288	5
SCR	29	288	5	96	384	2
BRK	32	0	6
BRK	32	0	7
BRK	32	48	6
BRK	32	48	7
HLD	32	144	0	144
HLD	32	144	5	144
TAP	33	0	3
TAP	33	96	3
TAP	33	192	3
TAP	33	288	3
BRK	34	0	0
BRK	34	0	1
BRK	34	48	0
BRK	34	48	1
HLD	34	144	2	144
HLD	34	144	7	144
TAP	35	0	4
TAP	35	96	4
TAP	35	192	4
TAP	35	288	4
TAP	36	0	1
TAP	36	96	2
TAP	36	96	3
TAP	36	192	6
TAP	36	288	4
TAP	36	288	5
TAP	37	0	0
TAP	37	96	1
TAP	37	96	2
TAP	37	192	7
TAP	37	288	5
TAP	37	288	6
STR	38	0	7
SCL	38	0	7	96	240	0
STR	39	0	1
SV_	39	0	1	96	96	4
STR	39	0	7
SV_	39	0	7	96	96	4
BRK	39	288	2
BRK	39	288	6
TAP	40	0	0
TAP	40	0	1
TAP	40	96	5
TAP	40	192	6
TAP	40	192	7
TAP	40	288	2
STR	41	0	0
SI_	41	0	0	96	96	5
STR	41	0	1
SI_	41	0	1	96	96	4
TAP	42	0	6
TAP	42	0	7
TAP	42	96	3
TAP	42	192	0
TAP	42	192	1
TAP	42	288	4
STR	43	0	6
SI_	43	0	6	96	96	3
STR	43	0	7
SI_	43	0	7	96	96	2
TAP	44	0	0
TAP	44	96	5
TAP	44	192	7
TAP	44	288	2
TAP	45	0	1
TAP	45	96	4
TAP	45	192	6
TAP	45	288	3
TAP	45	336	3
TAP	45	336	4
STR	46	192	3
SI_	46	192	3	96	192	6
STR	46	192	4
SI_	46	192	4	96	192	1
TAP	48	0	6
TAP	48	0	7
TAP	48	96	2
TAP	48	96	3
TAP	48	192	0
TAP	48	192	1
TAP	48	288	4
TAP	48	288	5
STR	49	0	3
SCR	49	0	3	96	96	6
STR	49	0	7
SCR	49	0	7	96	96	2
TAP	50	0	4
TAP	50	0	5
TAP	50	96	0
TAP	50	96	1
TAP	50	192	2
TAP	50	192	3
TAP	50	288	6
TAP	50	288	7
STR	51	0	3
SI_	51	0	3	96	96	0
STR	51	0	4
SI_	51	0	4	96	96	7
TAP	52	0	0
TAP	52	96	4
TAP	52	192	7
TAP	52	288	3
TAP	53	0	1
TAP	53	96	5
TAP	53	144	4
TAP	53	240	6
TAP	53	288	2
BRK	53	336	3
TAP	54	192	1
TAP	54	192	7
TAP	54	288	6
STR	54	336	0
SSL	54	336	0	96	144	4
BRK	57	0	3
BRK	57	0	5
BRK	57	48	3
BRK	57	48	5
BRK	57	144	2
BRK	57	144	4
BRK	57	192	2
BRK	57	192	4
BRK	57	288	3
BRK	57	288	5
BRK	57	336	3
BRK	57	336	5
BRK	58	48	2
BRK	58	48	4
BRK	58	96	2
BRK	58	96	4
TAP	58	192	6
TAP	58	240	2
STR	58	288	4
SI_	58	288	4	96	96	0
TAP	58	336	4
STR	59	288	3
SCL	59	288	3	96	96	0
STR	59	288	7
SCL	59	288	7	96	96	4
TAP	59	336	3
TAP	59	336	7
STR	60	288	1
SV_	60	288	1	96	96	4
STR	60	288	7
SV_	60	288	7	96	96	4
TAP	60	336	1
TAP	60	336	7
TAP	62	0	0
TAP	62	96	0
TAP	62	192	0
TAP	62	288	0
TAP	62	288	7
TAP	63	0	6
TAP	63	48	5
TAP	63	96	4
TAP	63	144	3
TAP	63	240	1
TAP	63	288	2
TAP	63	336	3
TAP	64	48	5
TAP	64	96	6
TAP	64	144	7
TAP	64	240	1
TAP	64	288	7
HLD	64	336	0	720
TAP	65	96	1
TAP	65	192	2
TAP	65	288	3
TAP	66	0	4
TAP	66	96	5
TAP	66	192	6
TAP	66	288	7
BRK	67	0	6
BRK	67	0	7
BRK	67	48	6
BRK	67	48	7
BRK	67	144	0
BRK	67	144	1
BRK	67	192	0
BRK	67	192	1
BRK	67	288	4
BRK	67	288	5
BRK	67	336	4
BRK	67	336	5
BRK	68	48	2
BRK	68	48	3
BRK	68	96	2
BRK	68	96	3
BRK	68	192	6
BRK	68	240	2
BRK	68	288	4
BRK	68	336	0

T_REC_TAP	197
T_REC_BRK	59
T_REC_XTP	0
T_REC_HLD	6
T_REC_XHO	0
T_REC_STR	33
T_REC_BST	0
T_REC_XST	0
T_REC_TTP	0
T_REC_THO	0
T_REC_SLD	33
T_REC_ALL	328
T_NUM_TAP	230
T_NUM_BRK	59
T_NUM_HLD	6
T_NUM_SLD	33
T_NUM_ALL	328
T_JUDGE_TAP	289
T_JUDGE_HLD	36
T_JUDGE_SLD	33
T_JUDGE_ALL	358
TTM_EACHPAIRS	79
TTM_SCR_TAP	115000
TTM_SCR_BRK	153400
TTM_SCR_HLD	6000
TTM_SCR_SLD	49500
TTM_SCR_ALL	323900
TTM_SCR_S	308500
TTM_SCR_SS	318000
TTM_RAT_ACV	10185

