VERSION	0.00.00	1.03.00
FES_MODE	0
BPM_DEF	186.000	186.000	186.000	186.000
MET_DEF	4	4
RESOLUTION	384
CLK_DEF	384
COMPATIBLE_CODE	MA2

BPM	0	0	186.000
MET	0	0	4	4

TAP	2	0	2
TAP	2	144	5
TAP	2	288	3
TAP	3	48	4
STR	3	192	3
SI_	3	192	3	96	288	0
STR	3	192	4
SI_	3	192	4	96	288	7
HLD	6	0	0	576
HLD	6	0	7	576
HLD	8	0	1	192
HLD	9	0	6	192
HLD	10	0	3	384
HLD	10	0	4	384
TAP	12	0	2
TAP	12	192	5
TAP	13	0	3
TAP	13	0	4
STR	13	96	3
SI_	13	96	3	96	96	0
TAP	13	96	4
TAP	14	0	6
TAP	14	192	1
TAP	15	0	3
TAP	15	0	4
TAP	15	96	2
TAP	15	96	5
BRK	15	192	0
BRK	15	192	7
TAP	16	0	0
TAP	16	96	1
TAP	16	192	2
TAP	17	0	7
TAP	17	96	6
TAP	17	192	5
TAP	18	0	2
TAP	18	0	3
TAP	18	192	4
TAP	18	192	5
TAP	19	0	3
TAP	19	96	4
TAP	19	192	0
TAP	19	288	7
TAP	20	0	2
TAP	20	96	1
TAP	20	192	0
TAP	21	0	5
TAP	21	96	6
TAP	21	192	7
TAP	22	0	0
TAP	22	96	7
TAP	22	192	1
TAP	22	288	6
TAP	23	0	2
TAP	23	96	5
TAP	23	192	3
TAP	23	288	4
TAP	24	0	2
TAP	24	0	3
TAP	24	192	2
TAP	24	192	3
TAP	25	0	4
TAP	25	0	5
TAP	25	192	4
TAP	25	192	5
HLD	26	0	1	96
HLD	26	192	0	96
HLD	27	0	7	96
HLD	27	192	6	96
TAP	28	0	6
TAP	28	96	6
TAP	28	192	6
TAP	29	0	7
TAP	29	96	7
TAP	29	192	7
TAP	30	0	0
TAP	30	96	1
TAP	30	192	2
TAP	30	288	3
TAP	31	0	4
TAP	31	96	5
BRK	31	192	6
TAP	32	0	6
TAP	32	0	7
HLD	32	144	6	528
HLD	32	144	7	528
TAP	34	0	0
TAP	34	0	1
HLD	34	144	0	528
HLD	34	144	1	528
STR	36	0	1
SUL	36	0	1	96	192	5
STR	37	0	6
SUR	37	0	6	96	192	2
TAP	38	0	2
TAP	38	0	3
TAP	38	192	4
TAP	38	192	5
TAP	39	0	6
TAP	39	0	7
BRK	39	192	0
BRK	39	192	1
TAP	40	0	3
TAP	40	0	4
TAP	40	96	2
TAP	40	96	4
TAP	40	192	1
TAP	40	192	4
TAP	41	0	3
TAP	41	0	4
TAP	41	96	3
TAP	41	96	5
TAP	41	192	3
TAP	41	192	6
TAP	42	0	0
TAP	42	0	7
TAP	42	96	0
TAP	42	96	7
TAP	42	192	1
TAP	42	192	6
TAP	42	288	1
TAP	42	288	6
TAP	43	0	2
TAP	43	0	5
TAP	43	96	2
TAP	43	96	5
TAP	43	192	3
TAP	43	192	4
TAP	43	288	3
TAP	43	288	4
TAP	44	0	3
TAP	44	96	4
TAP	44	192	5
TAP	44	288	6
TAP	45	0	7
TAP	45	96	0
TAP	45	192	1
TAP	45	288	2
TAP	46	0	3
TAP	46	96	2
TAP	46	192	1
TAP	46	288	0
TAP	47	0	7
TAP	47	96	6
TAP	47	192	5
BRK	47	288	4
TAP	48	0	0
TAP	48	96	1
TAP	48	192	1
BRK	48	288	0
TAP	49	0	7
TAP	49	96	6
TAP	49	192	6
BRK	49	288	7
TAP	50	0	2
TAP	50	96	2
TAP	50	192	3
TAP	50	288	3
TAP	51	0	4
TAP	51	96	4
TAP	51	192	5
TAP	51	288	5
TAP	52	0	2
TAP	52	96	3
TAP	52	192	3
BRK	52	288	2
TAP	53	0	5
TAP	53	96	4
TAP	53	192	4
BRK	53	288	5
TAP	54	0	3
TAP	54	96	3
TAP	54	192	4
STR	54	288	4
SI_	54	288	4	96	192	7
BRK	57	0	2
BRK	57	144	5
BRK	57	288	3
BRK	58	48	4
STR	58	192	3
SI_	58	192	3	96	288	0
STR	58	192	4
SI_	58	192	4	96	288	7
TAP	61	0	0
TAP	61	96	1
TAP	61	192	2
TAP	61	288	3
TAP	62	0	4
TAP	62	96	5
TAP	62	192	6
TAP	62	288	7
HLD	63	0	0	96
HLD	63	192	2	96
HLD	64	0	4	96
HLD	64	192	6	96
HLD	65	0	1	96
HLD	65	192	4	96
HLD	66	0	0	192
HLD	67	0	0	144
TAP	67	144	7
HLD	67	288	7	144
TAP	68	48	0
HLD	68	192	0	144
HLD	68	192	7	144

T_REC_TAP	149
T_REC_BRK	14
T_REC_XTP	0
T_REC_HLD	25
T_REC_XHO	0
T_REC_STR	8
T_REC_BST	0
T_REC_XST	0
T_REC_TTP	0
T_REC_THO	0
T_REC_SLD	8
T_REC_ALL	204
T_NUM_TAP	157
T_NUM_BRK	14
T_NUM_HLD	25
T_NUM_SLD	8
T_NUM_ALL	204
T_JUDGE_TAP	171
T_JUDGE_HLD	128
T_JUDGE_SLD	8
T_JUDGE_ALL	307
TTM_EACHPAIRS	38
TTM_SCR_TAP	78500
TTM_SCR_BRK	36400
TTM_SCR_HLD	25000
TTM_SCR_SLD	12000
TTM_SCR_ALL	151900
TTM_SCR_S	146000
TTM_SCR_SS	150500
TTM_RAT_ACV	10093

