VERSION	0.00.00	1.03.00
FES_MODE	0
BPM_DEF	186.000	186.000	186.000	186.000
MET_DEF	4	4
RESOLUTION	384
CLK_DEF	384
COMPATIBLE_CODE	MA2

BPM	0	0	186.000
MET	0	0	4	4

TAP	4	0	1
TAP	5	0	2
STR	6	0	2
SI_	6	0	2	96	288	5
TAP	8	0	6
TAP	8	192	6
TAP	9	0	5
TAP	9	192	5
STR	10	0	5
SI_	10	0	5	96	288	2
TAP	12	0	3
TAP	12	192	3
TAP	13	0	2
TAP	13	0	3
TAP	14	0	4
TAP	14	192	4
TAP	15	0	4
TAP	15	0	5
TAP	16	0	3
TAP	16	192	3
TAP	17	0	2
TAP	17	192	2
STR	18	0	1
SI_	18	0	1	96	288	5
TAP	20	0	4
TAP	20	192	4
TAP	21	0	5
TAP	21	192	5
STR	22	0	6
SI_	22	0	6	96	288	2
TAP	24	0	1
TAP	24	192	1
TAP	25	0	2
TAP	25	0	3
TAP	25	192	2
TAP	25	192	3
TAP	26	0	4
TAP	26	0	5
TAP	26	192	4
TAP	26	192	5
TAP	27	0	6
TAP	27	192	6
TAP	28	0	5
TAP	28	192	5
TAP	29	0	4
TAP	29	192	4
HLD	30	0	3	384
STR	32	0	2
SI_	32	0	2	96	288	5
STR	34	0	6
SI_	34	0	6	96	288	1
TAP	36	0	2
TAP	36	96	2
TAP	36	192	2
TAP	37	0	3
TAP	37	96	3
TAP	37	192	3
HLD	38	0	4	384
HLD	38	0	5	384
TAP	40	0	2
TAP	40	96	2
TAP	40	192	2
TAP	41	0	1
TAP	41	96	1
TAP	41	192	1
TAP	42	0	0
TAP	42	96	0
TAP	42	192	0
TAP	43	0	7
TAP	43	96	7
TAP	43	192	7
TAP	44	0	6
TAP	44	96	6
TAP	44	192	6
TAP	45	0	5
TAP	45	96	5
TAP	45	192	5
TAP	46	0	4
TAP	46	192	4
HLD	47	0	3	192
TAP	48	0	5
TAP	48	96	5
TAP	48	192	5
TAP	49	0	6
TAP	49	96	6
TAP	49	192	6
TAP	50	0	7
TAP	50	96	7
TAP	50	192	7
TAP	51	0	0
TAP	51	96	0
TAP	51	192	0
TAP	52	0	1
TAP	52	96	1
TAP	52	192	1
TAP	53	0	2
TAP	53	96	2
TAP	53	192	2
TAP	54	0	3
TAP	54	192	3
HLD	55	0	4	384
BRK	57	0	6
BRK	57	0	7
TAP	58	0	6
TAP	58	0	7
STR	59	0	0
SI_	59	0	0	96	288	4
HLD	61	0	6	384
STR	63	0	7
SI_	63	0	7	96	288	3
HLD	65	0	1	384
TAP	67	0	2
TAP	67	0	3
TAP	67	192	2
TAP	67	192	3
TAP	68	0	3
TAP	68	0	4
TAP	68	192	3
TAP	68	192	4
BRK	69	0	4
BRK	69	0	5

T_REC_TAP	94
T_REC_BRK	4
T_REC_XTP	0
T_REC_HLD	7
T_REC_XHO	0
T_REC_STR	8
T_REC_BST	0
T_REC_XST	0
T_REC_TTP	0
T_REC_THO	0
T_REC_SLD	8
T_REC_ALL	121
T_NUM_TAP	102
T_NUM_BRK	4
T_NUM_HLD	7
T_NUM_SLD	8
T_NUM_ALL	121
T_JUDGE_TAP	106
T_JUDGE_HLD	52
T_JUDGE_SLD	8
T_JUDGE_ALL	166
TTM_EACHPAIRS	14
TTM_SCR_TAP	51000
TTM_SCR_BRK	10400
TTM_SCR_HLD	7000
TTM_SCR_SLD	12000
TTM_SCR_ALL	80400
TTM_SCR_S	77600
TTM_SCR_SS	80000
TTM_RAT_ACV	10050

