VERSION	0.00.00	1.04.00
FES_MODE	0
BPM_DEF	150.000	150.000	150.000	150.000
MET_DEF	4	4
RESOLUTION	384
CLK_DEF	384
COMPATIBLE_CODE	MA2

BPM	0	0	150.000
MET	0	0	4	4

NMHLD	1	0	3	768
NMTAP	1	96	4
NMTAP	1	288	2
NMTAP	2	96	4
NMTAP	2	288	2
NMHLD	3	0	4	288
NMTAP	3	96	5
NMSTR	3	288	3
NMSCL	3	288	3	96	48	0
NMSTR	4	0	7
NMSCL	4	0	7	96	48	4
NMSTR	4	96	1
NMSI_	4	96	1	96	48	5
NMSTR	4	192	7
NMSSR	4	192	7	96	72	3
NMTAP	5	0	2
NMTAP	5	48	2
NMTAP	5	96	1
NMTAP	5	120	3
NMTAP	5	168	2
NMTAP	5	168	4
NMTAP	5	240	6
NMTAP	5	288	5
NMTAP	5	336	4
NMTAP	6	0	1
NMTAP	6	48	1
NMSTR	6	96	2
NMSCL	6	96	2	96	120	4
NMTAP	6	120	3
NMHLD	6	168	2	120
NMTAP	7	0	3
NMTAP	7	48	3
NMTAP	7	96	2
NMTAP	7	120	4
NMTAP	7	168	3
NMTAP	7	168	5
NMTAP	7	240	1
NMTAP	7	288	2
NMTAP	7	336	3
NMTAP	8	0	4
NMTAP	8	48	4
NMTAP	8	96	2
NMTAP	8	120	3
NMTAP	8	168	1
NMSTR	8	168	3
NMSI_	8	168	3	96	48	7
NMTAP	8	288	2
NMTAP	9	0	5
NMTAP	9	48	5
NMTAP	9	96	6
NMTAP	9	120	4
NMTAP	9	168	3
NMTAP	9	168	5
NMTAP	9	240	1
NMTAP	9	288	2
NMTAP	9	336	3
NMTAP	10	0	6
NMTAP	10	48	6
NMSTR	10	96	5
NMSCR	10	96	5	96	120	3
NMTAP	10	120	4
NMHLD	10	168	5	120
NMTAP	11	0	4
NMTAP	11	48	4
NMTAP	11	96	5
NMTAP	11	120	3
NMTAP	11	168	2
NMTAP	11	168	4
NMTAP	11	240	6
NMTAP	11	288	5
NMTAP	11	336	4
NMTAP	12	0	3
NMTAP	12	48	3
NMSTR	12	96	5
NMSUL	12	96	5	96	144	3
NMTAP	12	120	4
NMTAP	12	168	4
NMTAP	13	0	2
NMTAP	13	48	2
NMHLD	13	96	1	144
NMHLD	13	168	3	72
NMTAP	13	288	1
NMTAP	13	288	3
NMSTR	14	0	1
NMSI_	14	0	1	96	24	3
NMTAP	14	72	0
NMTAP	14	72	1
NMTAP	14	192	5
NMTAP	14	216	4
NMTAP	14	240	5
NMTAP	14	288	3
NMTAP	14	288	4
NMTAP	15	0	1
NMTAP	15	0	2
NMHLD	15	96	0	72
NMHLD	15	168	2	72
NMTAP	15	240	1
NMTAP	15	288	3
NMTAP	15	336	2
NMTAP	15	336	4
NMTAP	16	0	1
NMTAP	16	48	1
NMTAP	16	96	3
NMTAP	16	120	2
NMTAP	16	168	2
NMSTR	16	192	4
NMSI_	16	192	4	96	48	0
NMTAP	16	288	3
NMTAP	16	288	4
NMTAP	17	0	1
NMTAP	17	48	1
NMHLD	17	96	3	144
NMHLD	17	168	2	72
NMTAP	17	288	2
NMTAP	17	288	3
NMSTR	18	0	0
NMSI_	18	0	0	96	32	3
NMTAP	18	0	1
NMTAP	18	72	0
NMTAP	18	72	7
NMTAP	18	192	5
NMTAP	18	216	4
NMTAP	18	240	5
NMTAP	18	288	3
NMTAP	18	288	4
NMTAP	19	0	1
NMTAP	19	0	2
NMHLD	19	96	0	72
NMHLD	19	168	2	72
NMTAP	19	240	1
NMTAP	19	288	3
NMTAP	19	336	2
NMTAP	19	336	4
NMTAP	20	0	1
NMTAP	20	48	1
NMTAP	20	96	3
NMTAP	20	120	2
NMTAP	20	168	2
NMSTR	20	192	4
NMSI_	20	192	4	96	48	0
NMSTR	20	288	3
NMSCL	20	288	3	96	288	5
NMTAP	20	288	4
NMTAP	21	0	7
NMTAP	22	0	4
NMTAP	22	48	4
NMTAP	22	96	2
NMTAP	22	120	3
NMHLD	22	168	3	72
NMTAP	22	240	2
NMTAP	22	288	1
NMTAP	22	288	4
NMTAP	23	0	5
NMTAP	23	48	5
NMTAP	23	96	6
NMTAP	23	120	4
NMTAP	23	168	3
NMTAP	23	168	5
NMTAP	23	240	0
NMTAP	23	288	2
NMTAP	23	336	4
NMTAP	24	0	3
NMTAP	24	48	3
NMTAP	24	96	5
NMTAP	24	120	4
BRTAP	24	168	2
NMHLD	24	168	6	216
NMSTR	25	0	4
NMSCR	25	0	4	96	288	2
NMSTR	26	0	6
NMSI_	26	0	6	96	24	4
NMTAP	26	72	6
NMTAP	26	72	7
NMTAP	26	192	2
NMTAP	26	216	3
NMTAP	26	240	2
NMTAP	26	288	3
NMTAP	26	288	4
NMTAP	27	0	5
NMTAP	27	48	5
NMTAP	27	96	4
NMTAP	27	96	6
NMTAP	27	192	7
NMTAP	27	240	7
NMTAP	27	288	0
NMSTR	27	288	6
NMSCL	27	288	6	96	96	3
NMSTR	28	0	3
NMSUL	28	0	3	96	96	7
NMSTR	28	96	7
NMSUL	28	96	7	96	96	3
NMSTR	28	192	3
NMSCL	28	192	3	96	96	0
NMSTR	28	288	0
NMSCL	28	288	0	96	96	5
NMTAP	29	0	4
NMTAP	29	48	4
NMHLD	29	96	3	144
NMHLD	29	168	5	72
NMTAP	29	288	3
NMTAP	29	288	5
NMTAP	30	0	6
NMSTR	30	0	7
NMSI_	30	0	7	96	32	3
NMTAP	30	72	0
NMTAP	30	72	7
NMTAP	30	192	2
NMTAP	30	216	3
NMTAP	30	240	2
NMTAP	30	288	3
NMTAP	30	288	4
NMTAP	30	336	5
NMHLD	31	0	6	96
NMTAP	31	48	4
NMHLD	31	96	3	96
NMTAP	31	144	4
NMHLD	31	192	5	96
NMTAP	31	240	4
NMTAP	31	288	3
NMTAP	31	336	2
NMTAP	32	0	2
NMTAP	32	0	4
NMTAP	32	48	5
NMTAP	32	72	4
NMTAP	32	96	6
NMTAP	32	144	2
NMTAP	32	168	3
NMTAP	32	192	1
NMTAP	32	240	4
NMTAP	32	264	3
NMTAP	32	288	4
NMSTR	32	336	2
NMSI_	32	336	2	96	48	7
NMTAP	32	336	3
NMTAP	33	0	2
NMTAP	33	0	3
NMSTR	33	144	0
NMSI_	33	144	0	96	48	4
NMTAP	33	144	1
NMTAP	33	192	0
NMTAP	33	192	1
NMTAP	33	336	2
NMTAP	33	336	3
NMTAP	34	0	2
NMTAP	34	48	1
NMTAP	34	48	3
NMTAP	34	96	3
NMSTR	34	144	0
NMSCR	34	144	0	96	48	3
NMTAP	34	192	7
NMTAP	34	240	0
NMTAP	34	240	6
NMTAP	34	336	4
NMSTR	34	336	5
NMSI_	34	336	5	96	48	0
NMTAP	35	0	4
NMTAP	35	0	5
NMTAP	35	144	6
NMSTR	35	144	7
NMSI_	35	144	7	96	48	3
NMTAP	35	192	6
NMTAP	35	192	7
NMTAP	35	336	4
NMTAP	35	336	5
NMTAP	36	0	5
NMTAP	36	48	4
NMTAP	36	48	6
NMTAP	36	96	4
NMSTR	36	144	7
NMSCL	36	144	7	96	48	4
NMTAP	36	192	0
NMTAP	36	240	1
NMTAP	36	240	7
NMSTR	36	336	2
NMSI_	36	336	2	96	48	7
NMTAP	36	336	3
NMHLD	37	0	2	96
NMTAP	37	0	3
NMSTR	37	144	0
NMSI_	37	144	0	96	48	4
NMTAP	37	144	1
NMTAP	37	192	0
NMHLD	37	192	1	96
NMTAP	37	336	2
NMTAP	37	336	3
NMTAP	38	0	2
NMTAP	38	48	1
NMTAP	38	48	3
NMTAP	38	96	3
NMSTR	38	144	0
NMSCR	38	144	0	96	48	3
NMTAP	38	192	7
NMTAP	38	240	0
NMTAP	38	240	6
NMTAP	38	336	4
NMSTR	38	336	5
NMSI_	38	336	5	96	48	0
NMTAP	39	0	4
NMHLD	39	0	5	96
NMSTR	39	144	2
NMSI_	39	144	2	96	48	7
NMTAP	39	144	3
NMHLD	39	192	2	96
NMTAP	39	192	3
NMTAP	39	336	4
NMTAP	39	336	5
NMSTR	40	0	7
NMSCL	40	0	7	96	48	4
NMSTR	40	48	0
NMSCR	40	48	0	96	48	3
NMSTR	40	96	7
NMSI_	40	96	7	96	48	3
NMTAP	40	144	0
BRTAP	40	192	7
NMTAP	40	336	0
NMSTR	40	336	1
NMSI_	40	336	1	96	48	4
NMTAP	41	0	7
NMTAP	41	48	1
NMTAP	41	72	0
NMSTR	41	144	6
NMSI_	41	144	6	96	48	3
NMTAP	41	144	7
NMTAP	41	192	0
NMTAP	41	240	6
NMTAP	41	264	7
NMSTR	41	336	0
NMSI_	41	336	0	96	48	4
NMTAP	41	336	1
NMTAP	42	0	7
NMTAP	42	48	0
NMTAP	42	72	5
NMTAP	42	144	6
NMTAP	42	168	7
NMTAP	42	192	6
NMTAP	42	240	0
NMTAP	42	240	5
NMTAP	42	288	1
NMTAP	42	312	3
NMTAP	42	336	2
NMSTR	43	0	4
NMSI_	43	0	4	96	32	0
NMHLD	43	0	5	72
NMTAP	43	144	7
NMHLD	43	192	0	72
NMSTR	43	192	6
NMSCL	43	192	6	96	32	3
NMTAP	43	336	2
NMSTR	44	0	1
NMSI_	44	0	1	96	48	7
NMSTR	44	48	5
NMSI_	44	48	5	96	48	3
NMTAP	44	96	1
NMTAP	44	144	5
NMTAP	44	240	2
NMTAP	44	240	4
NMTAP	44	288	5
NMSTR	44	336	6
NMSI_	44	336	6	96	48	2
NMTAP	44	336	7
NMTAP	45	0	0
NMTAP	45	48	6
NMTAP	45	72	7
NMTAP	45	144	0
NMSTR	45	144	1
NMSI_	45	144	1	96	48	5
NMTAP	45	192	7
NMTAP	45	240	1
NMTAP	45	264	0
NMTAP	45	336	6
NMSTR	45	336	7
NMSI_	45	336	7	96	48	3
NMTAP	46	0	0
NMTAP	46	48	7
NMTAP	46	72	2
NMTAP	46	144	1
NMTAP	46	168	0
NMTAP	46	192	1
NMTAP	46	240	2
NMTAP	46	240	7
NMTAP	46	288	6
NMTAP	46	312	4
NMTAP	46	336	5
NMHLD	47	0	2	72
NMSTR	47	0	3
NMSI_	47	0	3	96	32	7
NMTAP	47	144	0
NMSTR	47	192	1
NMSCR	47	192	1	96	32	4
NMHLD	47	192	7	72
NMTAP	47	336	5
NMSTR	48	0	7
NMSI_	48	0	7	96	48	3
NMSTR	48	48	0
NMSI_	48	48	0	96	48	4
NMTAP	48	96	7
NMTAP	48	144	0
NMTAP	48	240	5
NMSTR	48	288	6
NMSI_	48	288	6	96	48	2
NMTAP	48	336	7
NMSTR	49	0	0
NMSCR	49	0	0	96	48	3
NMTAP	49	96	0
NMSTR	49	96	7
NMSCL	49	96	7	96	48	4
NMSTR	49	192	1
NMSI_	49	192	1	96	48	5
NMTAP	49	192	7
NMTAP	49	288	1
NMTAP	49	288	6
NMTAP	50	0	7
NMTAP	50	24	0
NMTAP	50	48	7
BRTAP	50	72	1
BRTAP	50	72	6
NMTAP	50	144	2
NMTAP	50	192	3
NMSTR	50	240	4
NMSI_	50	240	4	96	48	0
NMTAP	50	288	5
NMHLD	50	336	6	528
NMHLD	52	0	2	288
NMSTR	52	192	3
NMSCL	52	192	3	96	384	5
NMHLD	53	0	4	480
NMHLD	54	0	6	288
NMHLD	54	192	0	192
NMHLD	55	0	2	96
NMHLD	55	96	3	96
NMHLD	55	192	4	96
NMHLD	55	288	5	96
NMHLD	56	0	7	288
NMSTR	56	192	2
NMSUR	56	192	2	96	288	4
NMHLD	57	0	5	384
NMSTR	57	288	6
NMSCL	57	288	6	96	216	0
NMTAP	58	240	7
NMTAP	58	288	0
NMTAP	58	288	6
NMTAP	59	0	5
NMTAP	59	48	5
NMTAP	59	72	4
NMTAP	59	120	4
NMTAP	59	144	6
NMTAP	59	192	6
NMTAP	59	216	7
NMTAP	59	264	7
NMTAP	59	288	5
NMTAP	59	336	4
NMTAP	59	336	6
NMTAP	60	0	5
NMTAP	60	24	3
NMTAP	60	72	3
NMTAP	60	96	4
NMTAP	60	144	3
NMTAP	60	144	5
NMTAP	60	192	6
NMTAP	60	240	0
NMTAP	60	264	0
NMTAP	60	312	7
NMTAP	60	336	7
NMTAP	61	0	2
NMTAP	61	48	1
NMTAP	61	48	3
NMTAP	61	96	0
NMTAP	61	144	1
NMTAP	61	144	7
NMSTR	61	192	2
NMSI_	61	192	2	96	48	7
NMTAP	61	240	3
NMTAP	61	288	2
NMTAP	62	0	4
NMTAP	62	48	2
NMTAP	62	48	3
NMTAP	62	96	1
NMTAP	62	144	0
NMTAP	62	144	7
NMSTR	62	192	1
NMSCR	62	192	1	96	48	4
NMTAP	62	240	0
NMTAP	62	288	1
NMHLD	63	0	5	96
NMTAP	63	48	4
NMHLD	63	96	3	96
NMTAP	63	144	4
NMTAP	63	192	5
NMTAP	63	240	4
NMTAP	63	240	6
NMTAP	63	288	5
NMTAP	63	312	4
NMTAP	63	360	4
NMHLD	64	0	6	96
NMTAP	64	48	7
NMHLD	64	96	0	96
NMTAP	64	144	7
NMSTR	64	192	6
NMSI_	64	192	6	96	48	2
NMTAP	64	240	5
NMTAP	64	288	7
NMTAP	65	0	1
NMTAP	65	24	0
NMTAP	65	48	1
NMTAP	65	96	2
NMTAP	65	96	7
NMTAP	65	144	6
NMTAP	65	168	4
NMTAP	65	216	1
NMTAP	65	240	3
NMTAP	65	288	0
NMTAP	65	288	7
NMSTR	66	0	5
NMSCL	66	0	5	96	48	2
NMTAP	66	48	5
NMSTR	66	96	1
NMSUR	66	96	1	96	48	5
NMTAP	66	144	1
NMSTR	66	192	6
NMSI_	66	192	6	96	48	3
NMTAP	66	240	6
NMSTR	66	288	0
NMSI_	66	288	0	96	48	4
NMTAP	66	336	0
NMTAP	67	0	7
NMTAP	67	192	1
NMTAP	67	208	2
NMTAP	67	224	3
NMTAP	67	240	4
NMTAP	67	256	5
NMTAP	67	272	6
NMTAP	67	288	0
NMTAP	67	304	1
NMTAP	67	320	2
NMTAP	67	336	3
NMTAP	67	352	4
NMTAP	67	368	5
NMTAP	68	0	7
NMTAP	68	16	0
NMTAP	68	32	1
NMTAP	68	48	2
NMTAP	68	64	3
NMTAP	68	80	4
NMTAP	68	96	6
NMTAP	68	112	7
NMTAP	68	128	0
NMTAP	68	144	1
NMTAP	68	160	2
NMTAP	68	176	3
NMTAP	68	192	5
NMTAP	68	208	6
NMTAP	68	224	7
NMTAP	68	240	0
NMTAP	68	256	1
NMTAP	68	272	2
NMTAP	68	288	3
NMTAP	68	288	4
BRTAP	69	0	1
BRTAP	69	0	6
NMTAP	69	48	7
NMTAP	69	72	0
NMSTR	69	144	6
NMSCL	69	144	6	96	48	3
NMTAP	69	144	7
NMTAP	69	192	0
NMTAP	69	240	6
NMTAP	69	264	7
NMTAP	69	336	0
NMSTR	69	336	1
NMSCR	69	336	1	96	48	4
NMTAP	70	0	7
NMTAP	70	48	1
NMTAP	70	72	0
NMTAP	70	144	6
NMTAP	70	168	7
NMTAP	70	192	6
NMTAP	70	240	0
NMTAP	70	240	5
NMTAP	70	288	1
NMTAP	70	312	3
NMTAP	70	336	2
NMSTR	71	0	4
NMSI_	71	0	4	96	32	0
NMHLD	71	0	5	72
NMTAP	71	72	4
NMTAP	71	144	7
NMHLD	71	192	0	72
NMSTR	71	192	6
NMSCL	71	192	6	96	32	3
NMTAP	71	264	6
NMTAP	71	336	2
NMTAP	72	0	0
NMTAP	72	0	4
NMSTR	72	48	1
NMSI_	72	48	1	96	48	6
NMSTR	72	48	5
NMSI_	72	48	5	96	48	2
NMTAP	72	96	2
NMTAP	72	96	6
NMTAP	72	240	3
NMTAP	72	240	4
NMTAP	72	288	5
NMSTR	72	336	6
NMSUL	72	336	6	96	48	2
NMTAP	72	336	7
NMTAP	73	0	0
NMTAP	73	48	6
NMTAP	73	72	7
NMTAP	73	144	0
NMSTR	73	144	1
NMSUR	73	144	1	96	48	5
NMTAP	73	192	7
NMTAP	73	240	1
NMTAP	73	264	0
NMTAP	73	336	6
NMSTR	73	336	7
NMSI_	73	336	7	96	48	3
NMTAP	74	0	0
NMTAP	74	48	7
NMTAP	74	72	0
NMTAP	74	144	1
NMTAP	74	168	3
NMTAP	74	192	2
NMTAP	74	240	3
NMTAP	74	240	4
NMTAP	74	288	5
NMTAP	74	312	4
NMTAP	74	336	6
NMSTR	75	0	1
NMSI_	75	0	1	96	32	4
NMTAP	75	0	7
NMTAP	75	48	0
NMTAP	75	72	1
NMTAP	75	144	7
NMTAP	75	192	0
NMSTR	75	192	6
NMSI_	75	192	6	96	32	3
NMTAP	75	240	7
NMTAP	75	264	6
NMTAP	75	336	1
NMTAP	75	360	0
NMTAP	76	0	1
NMSTR	76	48	2
NMSCL	76	48	2	96	120	4
NMTAP	76	96	3
NMTAP	76	144	4
BRTAP	76	288	0
NMTAP	76	336	2
NMSTR	76	336	6
NMSI_	76	336	6	96	48	2
NMTAP	77	0	3
NMTAP	77	0	5
NMTAP	77	48	6
NMTAP	77	72	7
NMSTR	77	144	1
NMSI_	77	144	1	96	48	5
NMTAP	77	144	5
NMTAP	77	192	2
NMTAP	77	192	4
NMTAP	77	240	1
NMTAP	77	264	0
NMTAP	77	336	6
NMSTR	77	336	7
NMSI_	77	336	7	96	48	3
NMTAP	78	0	0
NMTAP	78	0	1
NMTAP	78	48	7
NMTAP	78	72	0
NMTAP	78	144	2
NMTAP	78	168	3
NMTAP	78	192	1
NMTAP	78	240	0
NMTAP	78	240	7
NMTAP	78	288	6
NMTAP	78	312	4
NMTAP	78	336	5
NMTAP	79	0	2
NMSTR	79	0	3
NMSI_	79	0	3	96	32	7
NMTAP	79	48	1
NMTAP	79	72	3
NMTAP	79	144	0
NMSTR	79	192	1
NMSCR	79	192	1	96	32	4
NMTAP	79	192	7
NMTAP	79	264	0
NMTAP	79	264	1
NMTAP	79	336	5
NMTAP	80	0	5
NMSTR	80	48	7
NMSUL	80	48	7	96	48	2
NMTAP	80	96	0
NMTAP	80	144	1
NMTAP	80	240	0
NMTAP	80	240	1
NMTAP	80	288	2
NMTAP	80	288	7
NMTAP	80	336	3
NMSTR	80	336	6
NMSV_	80	336	6	96	48	3
NMTAP	81	0	4
NMTAP	81	0	5
NMTAP	81	48	6
NMTAP	81	72	7
NMSTR	81	144	1
NMSV_	81	144	1	96	48	4
NMTAP	81	144	4
NMTAP	81	192	2
NMTAP	81	192	3
NMTAP	81	240	1
NMTAP	81	264	0
NMTAP	81	336	6
NMSTR	81	336	7
NMSI_	81	336	7	96	48	3
NMTAP	82	0	0
NMTAP	82	0	1
NMTAP	82	48	7
NMTAP	82	72	0
NMTAP	82	144	2
NMTAP	82	168	3
NMTAP	82	192	1
NMTAP	82	240	0
NMTAP	82	240	7
NMTAP	82	288	6
NMTAP	82	312	4
NMTAP	82	336	5
NMSTR	82	360	3
NMSCL	82	360	3	96	48	0
NMTAP	83	0	4
NMTAP	83	48	6
NMTAP	83	72	6
NMTAP	83	144	5
NMTAP	83	192	6
NMSTR	83	192	7
NMSCL	83	192	7	96	48	4
NMTAP	83	240	0
NMTAP	83	264	0
NMTAP	83	336	1
NMTAP	83	360	3
NMTAP	84	0	2
NMSTR	84	48	0
NMSSL	84	48	0	96	48	4
NMSTR	84	48	7
NMSSR	84	48	7	96	48	3
NMTAP	84	96	2
NMTAP	84	96	5
NMTAP	84	144	0
NMTAP	84	144	7
NMTAP	84	240	2
NMTAP	84	240	5
NMSTR	84	288	1
NMSUR	84	288	1	96	288	2
NMSTR	84	288	6
NMSUL	84	288	6	96	288	5
NMTAP	84	336	0
NMTAP	84	336	7
NMTAP	85	0	1
NMTAP	85	0	6
NMTAP	86	0	0
NMTAP	86	0	7
NMTAP	86	24	0
NMTAP	86	24	7
NMTAP	86	48	0
NMTAP	86	48	7
BRTAP	86	72	1
BRTAP	86	72	6
NMTAP	86	144	5
NMTAP	86	192	4
NMSTR	86	240	3
NMSCL	86	240	3	96	336	4
NMTAP	86	288	2
NMTAP	86	336	1
BRTAP	87	336	3
BRTAP	87	360	1
BRTAP	87	360	5

T_REC_TAP	535
T_REC_BRK	12
T_REC_XTP	0
T_REC_BXX	0
T_REC_HLD	44
T_REC_XHO	0
T_REC_BHO	0
T_REC_BXH	0
T_REC_STR	92
T_REC_BST	0
T_REC_XST	0
T_REC_XBS	0
T_REC_TTP	0
T_REC_THO	0
T_REC_SLD	92
T_REC_BSL	0
T_REC_ALL	775
T_NUM_TAP	627
T_NUM_BRK	12
T_NUM_HLD	44
T_NUM_SLD	92
T_NUM_ALL	775
T_JUDGE_TAP	639
T_JUDGE_HLD	151
T_JUDGE_SLD	92
T_JUDGE_ALL	882
TTM_EACHPAIRS	132
TTM_SCR_TAP	313500
TTM_SCR_BRK	31200
TTM_SCR_HLD	44000
TTM_SCR_SLD	138000
TTM_SCR_ALL	526700
TTM_SCR_S	509750
TTM_SCR_SS	525500
TTM_RAT_ACV	10022

