VERSION	0.00.00	1.03.00
FES_MODE	0
BPM_DEF	150.000	150.000	150.000	150.000
MET_DEF	4	4
RESOLUTION	384
CLK_DEF	384
COMPATIBLE_CODE	MA2

BPM	0	0	150.000
MET	0	0	4	4

TAP	1	0	0
TAP	1	48	0
TAP	1	96	5
TAP	1	120	4
TAP	1	168	5
TAP	1	240	5
TAP	1	288	4
TAP	1	336	3
TAP	2	0	2
TAP	2	48	2
TAP	2	96	6
TAP	2	120	7
HLD	2	168	6	120
TAP	2	288	0
TAP	3	0	7
TAP	3	48	7
TAP	3	96	2
TAP	3	120	3
TAP	3	168	2
TAP	3	240	2
TAP	3	288	3
TAP	3	336	4
TAP	4	0	5
TAP	4	48	5
TAP	4	96	1
TAP	4	120	0
HLD	4	168	1	120
TAP	4	288	7
TAP	5	0	6
TAP	5	48	1
TAP	5	96	5
TAP	5	120	4
TAP	5	168	7
TAP	5	216	2
TAP	5	240	3
TAP	5	288	0
TAP	5	336	7
TAP	6	0	1
TAP	6	48	6
TAP	6	96	2
TAP	6	120	3
TAP	6	168	0
TAP	6	216	5
TAP	6	240	4
TAP	6	288	7
TAP	6	336	0
TAP	7	0	5
TAP	7	48	2
TAP	7	96	6
TAP	7	120	7
TAP	7	168	4
TAP	7	216	1
TAP	7	240	0
TAP	7	288	3
TAP	7	336	4
TAP	8	0	3
TAP	8	0	7
TAP	8	48	0
TAP	8	48	4
TAP	8	96	2
TAP	8	96	6
TAP	8	120	1
TAP	8	120	5
TAP	8	168	3
TAP	8	168	7
BRK	8	288	1
BRK	8	288	5
STR	9	0	7
SCR	9	0	7	96	48	2
TAP	9	48	6
TAP	9	96	5
TAP	9	120	5
TAP	9	168	4
TAP	9	216	4
STR	9	240	3
SCR	9	240	3	96	48	5
TAP	9	288	2
TAP	9	336	1
STR	10	0	0
SCL	10	0	0	96	48	5
TAP	10	48	1
TAP	10	96	2
TAP	10	120	2
TAP	10	168	3
TAP	10	216	3
STR	10	240	4
SCL	10	240	4	96	48	2
TAP	10	288	5
TAP	10	336	6
STR	11	0	7
SI_	11	0	7	96	48	3
TAP	11	48	7
TAP	11	96	0
TAP	11	120	0
TAP	11	168	4
TAP	11	216	0
STR	11	240	0
SI_	11	240	0	96	48	4
TAP	11	288	0
TAP	11	336	7
TAP	12	0	3
TAP	12	0	7
TAP	12	48	3
TAP	12	48	7
TAP	12	96	2
TAP	12	96	6
TAP	12	120	1
TAP	12	120	5
BRK	12	168	0
BRK	12	168	4
TAP	13	0	2
TAP	13	48	2
TAP	13	96	1
TAP	13	120	3
HLD	13	168	1	168
TAP	13	240	0
TAP	13	288	7
TAP	13	336	6
TAP	14	0	4
TAP	14	0	5
TAP	14	72	4
TAP	14	72	5
STR	14	192	4
SI_	14	192	4	96	48	0
TAP	15	0	5
TAP	15	48	5
TAP	15	96	6
TAP	15	120	4
HLD	15	168	6	168
TAP	15	240	7
TAP	15	288	0
TAP	15	336	1
TAP	16	0	5
TAP	16	48	2
TAP	16	96	7
TAP	16	120	0
STR	16	168	6
SI_	16	168	6	96	48	2
BRK	16	240	0
BRK	16	288	0
TAP	17	0	4
TAP	17	48	5
TAP	17	96	2
TAP	17	120	3
HLD	17	168	2	168
TAP	17	240	3
TAP	17	288	4
TAP	17	336	5
TAP	18	0	3
TAP	18	0	4
TAP	18	72	3
TAP	18	72	4
STR	18	192	3
SI_	18	192	3	96	48	7
TAP	19	0	0
TAP	19	48	1
TAP	19	96	6
TAP	19	120	7
HLD	19	168	6	168
TAP	19	240	7
TAP	19	288	0
TAP	19	336	1
TAP	20	0	5
TAP	20	48	4
TAP	20	96	2
TAP	20	120	3
HLD	20	168	0	168
TAP	20	288	7
TAP	20	336	7
TAP	21	0	2
TAP	21	48	3
TAP	21	96	6
TAP	21	120	7
HLD	21	168	4	168
TAP	21	240	7
TAP	21	288	0
TAP	21	336	1
TAP	22	0	2
TAP	22	48	3
STR	22	96	6
SI_	22	96	6	96	24	2
TAP	22	120	6
TAP	22	168	0
TAP	22	288	0
TAP	23	0	5
TAP	23	48	4
TAP	23	96	1
TAP	23	120	0
HLD	23	168	3	168
TAP	23	240	0
TAP	23	288	7
TAP	23	336	6
TAP	24	0	5
TAP	24	48	4
STR	24	96	1
SI_	24	96	1	96	24	5
TAP	24	120	1
TAP	24	168	7
BRK	24	288	7
TAP	25	0	0
TAP	25	48	0
TAP	25	96	7
TAP	25	120	1
HLD	25	168	0	216
TAP	25	240	5
TAP	25	288	4
TAP	25	336	3
STR	26	0	2
SI_	26	0	2	96	24	6
TAP	26	24	2
TAP	26	72	0
STR	26	192	0
SSL	26	192	0	96	72	4
STR	27	0	7
SI_	27	0	7	96	48	3
TAP	27	48	7
STR	27	96	1
SI_	27	96	1	96	48	5
TAP	27	144	1
TAP	27	192	6
TAP	27	240	7
TAP	27	264	0
TAP	27	312	7
HLD	27	360	2	72
HLD	28	48	3	48
TAP	28	96	4
HLD	28	120	4	48
HLD	28	168	5	120
BRK	28	288	0
TAP	29	0	7
TAP	29	48	7
TAP	29	96	0
TAP	29	120	6
HLD	29	168	7	216
TAP	29	240	2
TAP	29	288	3
TAP	29	336	4
STR	30	0	5
SI_	30	0	5	96	24	1
TAP	30	24	5
TAP	30	72	7
TAP	30	312	0
TAP	30	336	7
TAP	30	360	0
TAP	31	0	7
TAP	31	48	2
TAP	31	96	5
TAP	31	144	2
TAP	31	192	4
TAP	31	216	3
TAP	31	240	4
TAP	31	264	3
TAP	31	312	6
TAP	31	336	1
TAP	31	360	6
TAP	32	0	1
TAP	32	48	7
TAP	32	96	0
TAP	32	144	1
HLD	32	168	1	168
TAP	32	288	5
TAP	32	336	5
BRK	33	0	1
BRK	33	0	5
TAP	33	48	3
TAP	33	96	1
TAP	33	96	5
TAP	33	144	3
TAP	33	192	1
TAP	33	192	5
TAP	33	240	3
TAP	33	264	3
TAP	33	336	4
TAP	34	0	2
TAP	34	0	6
TAP	34	48	4
TAP	34	96	2
TAP	34	96	6
TAP	34	144	4
TAP	34	192	2
TAP	34	192	6
TAP	34	240	4
TAP	34	264	4
TAP	34	336	3
BRK	35	0	1
BRK	35	0	5
TAP	35	48	3
TAP	35	96	1
TAP	35	96	5
TAP	35	144	3
TAP	35	192	1
TAP	35	192	5
TAP	35	240	3
TAP	35	264	4
TAP	35	336	3
TAP	36	0	2
TAP	36	0	6
TAP	36	48	4
TAP	36	96	2
TAP	36	96	6
TAP	36	144	4
TAP	36	192	2
TAP	36	192	6
TAP	36	240	4
TAP	36	264	3
TAP	36	336	4
BRK	37	0	1
BRK	37	0	5
TAP	37	48	3
TAP	37	96	2
TAP	37	96	6
TAP	37	144	4
TAP	37	192	1
TAP	37	192	5
TAP	37	240	3
TAP	37	264	4
TAP	37	336	6
BRK	38	0	2
BRK	38	0	6
TAP	38	48	4
TAP	38	96	1
TAP	38	96	5
TAP	38	144	3
TAP	38	192	2
TAP	38	192	6
TAP	38	240	4
TAP	38	264	3
TAP	38	336	1
BRK	39	0	0
BRK	39	0	4
TAP	39	48	2
TAP	39	96	3
TAP	39	96	7
TAP	39	144	5
BRK	39	192	0
BRK	39	192	4
TAP	39	240	2
TAP	39	264	5
TAP	39	336	3
TAP	39	336	7
TAP	40	0	6
TAP	40	0	7
TAP	40	48	4
TAP	40	48	5
TAP	40	96	0
TAP	40	96	1
TAP	40	144	2
TAP	40	144	3
BRK	40	192	0
BRK	40	192	7
STR	40	336	0
SI_	40	336	0	96	24	6
STR	41	0	7
SI_	41	0	7	96	24	1
STR	41	144	6
SI_	41	144	6	96	24	3
STR	41	192	1
SI_	41	192	1	96	24	4
STR	41	336	3
SI_	41	336	3	96	24	0
STR	42	0	4
SI_	42	0	4	96	24	7
TAP	42	144	0
TAP	42	168	7
STR	42	192	0
SCR	42	192	0	96	48	3
STR	42	240	7
SCL	42	240	7	96	48	4
TAP	42	288	0
TAP	42	336	7
STR	43	0	2
SI_	43	0	2	96	24	5
TAP	43	48	2
TAP	43	144	7
HLD	43	192	6	72
HLD	43	264	7	72
TAP	43	336	0
STR	44	0	1
SUL	44	0	1	96	48	4
STR	44	48	0
SUR	44	48	0	96	48	5
TAP	44	240	3
TAP	44	240	6
TAP	44	288	2
TAP	44	288	7
STR	44	336	0
SI_	44	336	0	96	24	3
STR	45	0	1
SI_	45	0	1	96	24	6
STR	45	144	3
SUL	45	144	3	96	24	4
STR	45	192	6
SCR	45	192	6	96	24	1
STR	45	336	4
SCR	45	336	4	96	24	7
STR	46	0	1
SCR	46	0	1	96	24	4
TAP	46	144	6
TAP	46	192	2
TAP	46	240	6
TAP	46	288	0
TAP	46	312	4
TAP	46	336	0
TAP	46	360	7
TAP	47	0	0
TAP	47	48	6
TAP	47	72	7
STR	47	144	6
SCR	47	144	6	96	24	1
STR	47	192	2
SUL	47	192	2	96	24	5
TAP	47	312	7
TAP	47	360	1
STR	48	0	7
SI_	48	0	7	96	48	3
STR	48	48	1
SI_	48	48	1	96	48	5
TAP	48	96	7
TAP	48	144	1
TAP	48	240	2
TAP	48	288	1
TAP	48	336	0
STR	49	0	7
SCL	49	0	7	96	48	4
STR	49	96	1
SCR	49	96	1	96	48	4
STR	49	192	6
SCL	49	192	6	96	48	3
TAP	50	0	1
TAP	50	0	5
TAP	50	24	2
TAP	50	24	6
TAP	50	48	3
TAP	50	48	7
TAP	50	72	0
TAP	50	72	4
TAP	50	144	3
TAP	50	144	7
TAP	50	192	2
TAP	50	192	6
TAP	50	240	1
TAP	50	240	5
TAP	50	288	0
TAP	50	288	4
BRK	50	336	3
BRK	50	336	7
STR	51	0	1
SCR	51	0	1	96	96	4
STR	51	96	4
SUL	51	96	4	96	96	7
STR	51	192	7
SUL	51	192	7	96	96	2
STR	51	288	2
SCL	51	288	2	96	144	5
STR	53	0	6
SCL	53	0	6	96	96	3
STR	53	96	3
SUR	53	96	3	96	96	0
STR	53	192	0
SUR	53	192	0	96	96	5
STR	53	288	5
SCR	53	288	5	96	144	2
STR	55	0	0
SUL	55	0	0	96	96	4
STR	55	96	4
SCL	55	96	4	96	96	1
STR	55	192	1
SUR	55	192	1	96	96	3
STR	55	288	3
SCR	55	288	3	96	144	0
STR	57	0	7
SUL	57	0	7	96	96	3
STR	57	96	3
SCR	57	96	3	96	96	6
STR	57	192	6
SUL	57	192	6	96	96	4
STR	57	288	4
SCL	57	288	4	96	144	7
BRK	58	240	0
BRK	58	288	0
TAP	59	0	7
TAP	59	48	2
TAP	59	72	3
TAP	59	120	5
TAP	59	144	4
TAP	59	168	5
TAP	59	192	4
TAP	59	216	5
TAP	59	240	4
TAP	59	288	6
TAP	59	336	7
TAP	60	0	1
TAP	60	24	0
TAP	60	72	2
TAP	60	96	3
TAP	60	120	2
TAP	60	144	3
TAP	60	168	2
TAP	60	192	3
TAP	60	240	6
TAP	60	264	7
TAP	60	312	6
TAP	60	336	7
TAP	60	360	5
TAP	61	0	0
TAP	61	24	4
TAP	61	48	1
TAP	61	72	3
TAP	61	96	2
TAP	61	120	5
TAP	61	144	4
TAP	61	168	6
TAP	61	192	3
TAP	61	192	7
TAP	61	240	2
TAP	61	240	6
TAP	61	288	1
TAP	61	288	5
TAP	61	336	0
TAP	61	336	4
TAP	62	0	1
TAP	62	24	0
TAP	62	48	2
TAP	62	72	7
TAP	62	96	3
TAP	62	120	6
TAP	62	144	4
TAP	62	168	5
TAP	62	192	2
TAP	62	192	6
TAP	62	240	1
TAP	62	240	5
BRK	62	288	0
BRK	62	288	4
TAP	62	360	0
TAP	63	0	7
TAP	63	24	0
TAP	63	48	7
TAP	63	72	1
TAP	63	96	6
TAP	63	120	1
TAP	63	144	6
TAP	63	168	2
TAP	63	192	5
TAP	63	216	2
TAP	63	240	5
TAP	63	264	3
TAP	63	288	4
TAP	63	312	3
TAP	63	336	4
TAP	63	360	3
TAP	64	0	4
TAP	64	24	2
TAP	64	48	5
TAP	64	72	1
TAP	64	96	6
TAP	64	120	0
TAP	64	144	7
TAP	64	168	0
TAP	64	192	4
TAP	64	216	1
TAP	64	240	5
TAP	64	264	2
BRK	64	288	6
TAP	65	0	6
TAP	65	24	1
TAP	65	48	5
TAP	65	96	4
STR	65	144	7
SI_	65	144	7	96	48	3
STR	65	168	4
SI_	65	168	4	96	48	0
TAP	65	336	1
TAP	65	360	6
TAP	66	0	1
TAP	66	24	6
TAP	66	72	3
TAP	66	96	4
TAP	66	144	0
TAP	66	144	1
TAP	66	192	2
TAP	66	192	3
TAP	66	240	4
TAP	66	240	5
TAP	66	288	6
TAP	66	288	7
BRK	66	336	0
BRK	66	336	1
TAP	67	192	1
TAP	67	208	2
TAP	67	224	3
TAP	67	240	4
TAP	67	256	5
TAP	67	272	6
TAP	67	288	7
TAP	67	304	0
TAP	67	320	1
TAP	67	336	2
TAP	67	352	3
TAP	67	368	4
TAP	68	0	5
TAP	68	16	6
TAP	68	32	7
TAP	68	48	0
TAP	68	64	1
TAP	68	80	2
TAP	68	96	3
TAP	68	112	4
TAP	68	128	5
TAP	68	144	6
TAP	68	160	7
TAP	68	176	0
TAP	68	192	1
TAP	68	208	2
TAP	68	224	3
TAP	68	240	4
TAP	68	256	5
TAP	68	272	6
TAP	68	288	7
STR	68	336	3
SI_	68	336	3	96	24	5
STR	69	0	4
SI_	69	0	4	96	24	2
STR	69	144	5
SI_	69	144	5	96	24	0
STR	69	192	2
SI_	69	192	2	96	24	7
STR	69	336	0
SUL	69	336	0	96	48	3
STR	70	0	7
SUR	70	0	7	96	48	4
TAP	70	144	2
TAP	70	168	5
STR	70	192	2
SI_	70	192	2	96	48	7
TAP	70	240	5
TAP	70	288	4
TAP	70	336	3
TAP	71	0	3
TAP	71	0	7
TAP	71	48	0
TAP	71	48	4
TAP	71	72	1
TAP	71	72	5
STR	71	144	2
SI_	71	144	2	96	24	7
STR	71	192	6
SI_	71	192	6	96	24	3
TAP	71	336	0
TAP	72	0	4
TAP	72	48	1
TAP	72	96	5
TAP	72	144	2
TAP	72	240	2
TAP	72	240	6
TAP	72	288	1
TAP	72	288	5
BRK	72	336	0
STR	72	336	4
SV_	72	336	4	96	24	6
STR	73	0	0
SV_	73	0	0	96	24	2
STR	73	144	6
SV_	73	144	6	96	24	4
STR	73	192	2
SV_	73	192	2	96	24	0
STR	73	336	4
SCR	73	336	4	96	24	6
STR	74	0	0
SCR	74	0	0	96	24	2
TAP	74	144	7
TAP	74	192	3
TAP	74	240	7
TAP	74	288	0
TAP	74	312	4
TAP	74	336	2
TAP	74	360	6
TAP	75	0	0
TAP	75	48	7
TAP	75	72	0
STR	75	144	6
SI_	75	144	6	96	24	2
STR	75	192	0
SI_	75	192	0	96	24	4
TAP	75	312	7
TAP	75	360	0
STR	76	0	7
SI_	76	0	7	96	48	3
STR	76	48	1
SI_	76	48	1	96	48	5
TAP	76	96	7
TAP	76	144	1
STR	76	336	6
SI_	76	336	6	96	24	3
STR	77	0	3
SI_	77	0	3	96	24	6
TAP	77	48	1
TAP	77	72	1
STR	77	144	1
SI_	77	144	1	96	24	4
STR	77	192	4
SI_	77	192	4	96	24	1
TAP	77	240	6
TAP	77	264	6
STR	77	336	7
SI_	77	336	7	96	24	3
STR	78	0	3
SI_	78	0	3	96	24	5
TAP	78	48	1
TAP	78	72	1
TAP	78	144	1
TAP	78	168	5
STR	78	192	3
SI_	78	192	3	96	24	7
STR	78	240	7
SI_	78	240	7	96	24	3
STR	79	0	5
SI_	79	0	5	96	24	1
TAP	79	48	5
TAP	79	144	0
HLD	79	192	7	144
TAP	79	264	6
TAP	79	336	5
STR	80	0	5
SI_	80	0	5	96	24	0
STR	80	48	0
SI_	80	48	0	96	24	2
STR	80	240	0
SI_	80	240	0	96	24	4
STR	80	240	7
SI_	80	240	7	96	24	3
TAP	80	288	1
TAP	80	288	6
STR	81	0	5
SCR	81	0	5	96	24	0
TAP	81	48	5
STR	81	144	1
SCL	81	144	1	96	24	6
STR	81	192	5
SCR	81	192	5	96	24	0
STR	81	336	2
SCR	81	336	2	96	24	5
STR	82	0	6
SCL	82	0	6	96	24	3
STR	82	144	2
SI_	82	144	2	96	24	7
STR	82	192	7
SI_	82	192	7	96	24	5
STR	82	336	6
SI_	82	336	6	96	24	3
STR	83	0	3
SI_	83	0	3	96	24	1
STR	83	144	1
SI_	83	144	1	96	24	5
STR	83	192	5
SUL	83	192	5	96	48	3
TAP	83	336	7
STR	84	0	7
SI_	84	0	7	96	48	3
STR	84	48	0
SI_	84	48	0	96	48	4
TAP	84	96	7
TAP	84	144	0
TAP	84	240	6
TAP	84	288	7
TAP	84	336	0
HLD	85	0	1	288
TAP	85	96	3
TAP	85	192	7
TAP	85	288	5
TAP	86	0	1
TAP	86	0	5
TAP	86	24	2
TAP	86	24	6
TAP	86	48	3
TAP	86	48	7
TAP	86	72	0
TAP	86	72	4
TAP	86	144	3
TAP	86	144	7
TAP	86	192	2
TAP	86	192	6
TAP	86	240	1
TAP	86	240	5
TAP	86	288	0
TAP	86	288	4
STR	86	336	3
SUR	86	336	3	96	144	0
STR	86	336	7
SUR	86	336	7	96	144	4
BRK	87	336	7
BRK	87	360	0

T_REC_TAP	528
T_REC_BRK	34
T_REC_XTP	0
T_REC_HLD	20
T_REC_XHO	0
T_REC_STR	105
T_REC_BST	0
T_REC_XST	0
T_REC_TTP	0
T_REC_THO	0
T_REC_SLD	105
T_REC_ALL	792
T_NUM_TAP	633
T_NUM_BRK	34
T_NUM_HLD	20
T_NUM_SLD	105
T_NUM_ALL	792
T_JUDGE_TAP	667
T_JUDGE_HLD	68
T_JUDGE_SLD	105
T_JUDGE_ALL	840
TTM_EACHPAIRS	82
TTM_SCR_TAP	316500
TTM_SCR_BRK	88400
TTM_SCR_HLD	20000
TTM_SCR_SLD	157500
TTM_SCR_ALL	582400
TTM_SCR_S	561650
TTM_SCR_SS	579000
TTM_RAT_ACV	10058

