VERSION	0.00.00	1.03.00
FES_MODE	0
BPM_DEF	150.000	150.000	150.000	150.000
MET_DEF	4	4
RESOLUTION	384
CLK_DEF	384
COMPATIBLE_CODE	MA2

BPM	0	0	150.000
MET	0	0	4	4

TAP	1	0	1
TAP	1	96	3
HLD	1	168	4	120
TAP	1	288	5
TAP	2	0	6
TAP	2	96	4
HLD	2	168	3	120
TAP	2	288	2
TAP	3	0	1
TAP	3	96	3
TAP	3	168	4
STR	3	288	5
SUL	3	288	5	96	240	2
BRK	4	288	1
TAP	5	0	2
TAP	5	48	3
TAP	5	96	2
TAP	5	168	4
TAP	5	240	0
TAP	5	288	6
TAP	6	0	5
TAP	6	48	4
TAP	6	96	5
TAP	6	168	3
TAP	6	240	7
TAP	6	288	1
TAP	7	0	1
TAP	7	48	3
TAP	7	96	1
TAP	7	168	5
TAP	7	240	0
TAP	7	288	7
TAP	8	0	6
TAP	8	48	4
TAP	8	96	6
TAP	8	144	2
TAP	8	192	7
TAP	8	288	0
TAP	8	288	1
TAP	9	0	2
TAP	9	48	3
TAP	9	96	2
TAP	9	168	4
TAP	9	240	0
TAP	9	288	6
TAP	10	0	5
TAP	10	48	4
TAP	10	96	5
TAP	10	168	3
TAP	10	240	7
TAP	10	288	1
TAP	11	0	0
TAP	11	48	4
TAP	11	96	0
TAP	11	168	7
TAP	11	240	1
TAP	11	288	6
TAP	12	0	3
TAP	12	48	5
STR	12	96	0
SI_	12	96	0	96	48	4
TAP	13	0	7
TAP	13	48	1
TAP	13	96	5
HLD	13	168	5	120
TAP	13	288	0
TAP	14	0	6
TAP	14	0	7
TAP	14	72	4
TAP	14	72	5
HLD	15	0	5	168
TAP	15	96	1
TAP	15	168	7
TAP	15	240	4
TAP	15	288	2
TAP	15	336	6
TAP	16	0	0
TAP	16	48	7
TAP	16	96	6
TAP	16	144	5
TAP	16	192	3
TAP	16	192	4
TAP	16	288	1
TAP	16	288	2
TAP	17	0	0
TAP	17	48	6
TAP	17	96	2
HLD	17	168	2	120
TAP	17	288	7
TAP	18	0	0
TAP	18	0	1
TAP	18	72	2
TAP	18	72	3
HLD	19	0	2	168
TAP	19	96	6
TAP	19	168	0
TAP	19	240	3
TAP	19	288	5
TAP	19	336	1
TAP	20	0	7
TAP	20	48	0
TAP	20	96	1
TAP	20	144	2
TAP	20	192	3
TAP	20	192	4
TAP	20	288	1
TAP	20	288	6
TAP	21	0	2
TAP	21	48	3
TAP	21	96	2
TAP	21	168	4
TAP	21	240	0
TAP	21	288	6
TAP	22	0	5
TAP	22	48	4
TAP	22	96	5
TAP	22	168	3
TAP	22	240	7
TAP	22	288	1
TAP	23	0	1
TAP	23	48	3
TAP	23	96	1
TAP	23	168	5
TAP	23	240	0
TAP	23	288	7
TAP	24	0	6
TAP	24	48	4
TAP	24	96	6
BRK	24	168	0
BRK	24	168	7
TAP	25	0	0
TAP	25	48	6
TAP	25	96	2
HLD	25	168	2	120
TAP	25	288	7
TAP	26	0	0
TAP	26	0	1
TAP	26	72	6
TAP	26	72	7
TAP	26	336	3
HLD	27	0	4	96
TAP	27	96	7
TAP	27	192	5
TAP	27	240	2
TAP	27	288	0
TAP	28	0	7
TAP	28	48	0
TAP	28	96	1
TAP	28	144	2
TAP	28	192	3
TAP	28	192	4
TAP	28	288	5
TAP	28	288	6
TAP	29	0	7
TAP	29	48	1
TAP	29	96	5
HLD	29	168	5	120
TAP	29	288	0
TAP	30	0	6
TAP	30	0	7
TAP	30	72	0
TAP	30	72	1
TAP	30	336	4
HLD	31	0	3	96
TAP	31	96	0
TAP	31	192	2
TAP	31	240	5
TAP	31	288	7
TAP	32	0	0
TAP	32	48	7
TAP	32	96	6
TAP	32	144	5
BRK	32	192	3
BRK	32	192	4
TAP	32	336	4
TAP	32	336	5
HLD	33	0	4	96
HLD	33	0	5	96
TAP	33	144	2
TAP	33	144	3
HLD	33	192	2	96
HLD	33	192	3	96
TAP	33	336	5
TAP	34	0	5
TAP	34	48	2
TAP	34	96	2
TAP	34	192	3
TAP	34	192	4
TAP	34	240	3
TAP	34	240	4
TAP	34	336	2
TAP	34	336	3
HLD	35	0	2	96
HLD	35	0	3	96
TAP	35	144	4
TAP	35	144	5
HLD	35	192	4	96
HLD	35	192	5	96
TAP	35	336	3
TAP	36	0	3
TAP	36	48	4
TAP	36	96	4
TAP	36	192	2
TAP	36	192	5
TAP	36	240	2
TAP	36	240	5
TAP	36	336	3
TAP	36	336	6
HLD	37	0	3	96
HLD	37	0	6	96
TAP	37	144	1
TAP	37	144	4
HLD	37	192	1	96
HLD	37	192	4	96
TAP	37	336	0
TAP	38	0	0
TAP	38	48	7
TAP	38	96	7
TAP	38	192	1
TAP	38	192	6
TAP	38	240	1
TAP	38	240	6
TAP	38	336	2
TAP	38	336	7
HLD	39	0	2	96
HLD	39	0	7	96
TAP	39	144	0
TAP	39	144	5
HLD	39	192	0	96
HLD	39	192	5	96
TAP	40	0	1
TAP	40	0	6
TAP	40	48	1
TAP	40	48	6
TAP	40	96	2
TAP	40	96	5
TAP	40	144	2
TAP	40	144	5
BRK	40	192	3
BRK	40	192	4
TAP	40	336	2
TAP	41	0	3
TAP	41	72	1
TAP	41	72	4
TAP	41	144	5
TAP	41	192	4
TAP	41	264	3
TAP	41	264	6
TAP	41	336	2
TAP	42	0	5
TAP	42	72	0
TAP	42	72	7
TAP	42	144	6
TAP	42	192	5
TAP	42	240	4
TAP	42	288	3
TAP	42	336	2
TAP	43	0	1
TAP	43	72	2
TAP	43	72	7
TAP	43	144	6
TAP	43	192	7
TAP	43	264	0
TAP	43	264	5
TAP	43	336	3
TAP	44	0	2
TAP	44	48	1
TAP	44	96	0
TAP	44	144	7
TAP	44	240	0
TAP	44	240	6
TAP	44	288	1
TAP	44	288	7
TAP	45	0	3
TAP	45	48	5
TAP	45	72	4
TAP	45	144	1
TAP	45	192	4
TAP	45	240	2
TAP	45	264	3
TAP	45	336	1
TAP	46	0	6
TAP	46	48	3
TAP	46	72	4
TAP	46	144	1
TAP	46	192	2
TAP	46	240	3
TAP	46	288	4
TAP	46	336	5
TAP	47	0	0
TAP	47	48	6
TAP	47	72	7
TAP	47	144	2
TAP	47	192	7
TAP	47	240	1
TAP	47	264	0
TAP	47	336	6
STR	48	0	0
SSL	48	0	0	96	144	4
TAP	48	240	5
TAP	48	288	4
TAP	48	336	3
TAP	49	0	2
TAP	49	96	0
TAP	49	96	1
TAP	49	192	6
TAP	49	192	7
TAP	49	288	3
TAP	49	288	4
TAP	50	0	1
TAP	50	0	6
BRK	50	48	0
BRK	50	48	7
TAP	50	144	0
TAP	50	192	7
TAP	50	240	6
TAP	50	288	5
STR	50	336	4
SI_	50	336	4	96	96	0
STR	52	0	1
SCL	52	0	1	96	72	6
STR	52	192	5
SCR	52	192	5	96	96	1
STR	53	0	2
SCL	53	0	2	96	144	5
STR	54	0	5
SCL	54	0	5	96	72	2
STR	54	192	1
SCR	54	192	1	96	96	5
STR	55	0	6
SCL	55	0	6	96	144	1
STR	56	0	0
SCL	56	0	0	96	72	5
STR	56	192	7
SCR	56	192	7	96	72	2
STR	57	0	3
SCL	57	0	3	96	192	4
STR	58	0	7
SSR	58	0	7	96	192	3
TAP	59	0	0
TAP	59	48	0
TAP	59	96	0
TAP	59	192	4
TAP	59	240	4
TAP	59	288	4
TAP	60	0	3
TAP	60	48	5
TAP	60	96	1
TAP	60	144	7
TAP	60	192	0
TAP	60	288	1
TAP	60	288	6
TAP	61	0	3
TAP	61	48	3
TAP	61	96	3
TAP	61	192	7
TAP	61	240	7
TAP	61	288	7
TAP	62	0	5
TAP	62	48	4
TAP	62	96	3
TAP	62	144	2
TAP	62	192	3
TAP	62	240	4
TAP	62	288	5
TAP	63	0	3
TAP	63	48	3
TAP	63	96	5
TAP	63	144	5
TAP	63	192	1
TAP	63	240	7
TAP	63	288	0
TAP	64	0	4
TAP	64	48	4
TAP	64	96	2
TAP	64	144	2
TAP	64	192	6
TAP	64	240	0
TAP	64	288	7
TAP	65	0	1
TAP	65	48	0
TAP	65	96	7
HLD	65	144	6	96
TAP	65	240	1
TAP	65	288	0
TAP	65	288	7
TAP	66	0	1
TAP	66	0	5
TAP	66	48	1
TAP	66	48	5
TAP	66	96	2
TAP	66	96	6
TAP	66	144	2
TAP	66	144	6
STR	66	192	3
SCL	66	192	3	96	96	0
STR	66	288	7
SCL	66	288	7	96	96	4
TAP	67	192	1
TAP	67	240	1
TAP	67	288	2
TAP	67	336	2
TAP	68	0	3
TAP	68	48	3
TAP	68	96	4
TAP	68	144	4
TAP	68	192	5
TAP	68	240	5
BRK	68	288	1
BRK	68	288	6
TAP	69	0	3
TAP	69	72	1
TAP	69	72	4
TAP	69	144	5
TAP	69	192	4
TAP	69	264	3
TAP	69	264	6
TAP	69	336	2
TAP	70	0	5
TAP	70	72	0
TAP	70	72	7
TAP	70	144	6
STR	70	192	0
SI_	70	192	0	96	48	4
TAP	71	0	6
TAP	71	72	0
TAP	71	72	5
TAP	71	144	1
TAP	71	192	0
TAP	71	264	2
TAP	71	264	7
TAP	71	336	4
TAP	72	0	5
TAP	72	48	6
TAP	72	96	7
TAP	72	144	0
TAP	72	240	1
TAP	72	240	7
TAP	72	288	0
TAP	72	288	6
TAP	73	0	7
TAP	73	72	0
TAP	73	72	5
TAP	73	144	1
TAP	73	192	0
TAP	73	264	2
TAP	73	264	7
TAP	73	336	5
TAP	74	0	2
TAP	74	72	3
TAP	74	72	4
TAP	74	144	1
STR	74	192	7
SI_	74	192	7	96	48	3
TAP	75	0	1
TAP	75	72	2
TAP	75	72	7
TAP	75	144	6
TAP	75	192	7
TAP	75	264	0
TAP	75	264	5
TAP	75	336	6
STR	76	0	0
SCR	76	0	0	96	96	3
STR	76	48	7
SCL	76	48	7	96	96	4
TAP	76	336	2
TAP	77	0	3
TAP	77	48	1
TAP	77	72	0
TAP	77	144	5
TAP	77	192	4
TAP	77	240	6
TAP	77	264	7
TAP	77	336	2
TAP	77	336	5
TAP	78	0	2
TAP	78	0	5
TAP	78	48	0
TAP	78	72	7
TAP	78	144	6
STR	78	192	1
SI_	78	192	1	96	48	5
TAP	79	0	7
TAP	79	48	1
TAP	79	72	0
TAP	79	144	5
TAP	79	192	0
TAP	79	240	6
TAP	79	264	7
TAP	79	336	2
TAP	79	336	5
TAP	80	0	1
TAP	80	48	4
TAP	80	96	3
TAP	80	144	6
TAP	80	240	1
TAP	80	240	7
TAP	80	288	0
TAP	80	288	6
TAP	81	0	4
TAP	81	0	5
TAP	81	48	6
TAP	81	72	7
TAP	81	144	1
TAP	81	144	6
TAP	81	192	1
TAP	81	192	6
TAP	81	240	3
TAP	81	264	4
TAP	81	336	2
TAP	81	336	3
TAP	82	0	2
TAP	82	0	3
TAP	82	48	1
TAP	82	72	0
TAP	82	144	1
STR	82	192	6
SI_	82	192	6	96	48	2
TAP	83	0	2
TAP	83	48	4
TAP	83	72	3
TAP	83	144	2
TAP	83	144	5
TAP	83	192	2
TAP	83	192	5
TAP	83	240	1
TAP	83	264	6
TAP	83	336	0
TAP	83	336	7
STR	84	0	1
SI_	84	0	1	96	48	5
STR	84	48	7
SI_	84	48	7	96	48	3
TAP	84	240	2
TAP	84	240	5
TAP	84	288	2
TAP	84	288	5
TAP	84	336	3
TAP	84	336	4
TAP	85	0	3
TAP	85	0	4
TAP	85	96	0
TAP	85	96	1
TAP	85	192	6
TAP	85	192	7
TAP	85	288	1
TAP	85	288	6
BRK	86	0	0
BRK	86	0	7
BRK	86	48	0
BRK	86	48	7
TAP	86	144	1
TAP	86	144	5
TAP	86	192	1
TAP	86	192	5
TAP	86	240	2
TAP	86	240	6
TAP	86	288	2
TAP	86	288	6
STR	86	336	3
SCL	86	336	3	96	192	0
STR	86	336	7
SCL	86	336	7	96	192	4
BRK	87	336	1
BRK	87	336	6

T_REC_TAP	470
T_REC_BRK	17
T_REC_XTP	0
T_REC_HLD	27
T_REC_XHO	0
T_REC_STR	26
T_REC_BST	0
T_REC_XST	0
T_REC_TTP	0
T_REC_THO	0
T_REC_SLD	26
T_REC_ALL	566
T_NUM_TAP	496
T_NUM_BRK	17
T_NUM_HLD	27
T_NUM_SLD	26
T_NUM_ALL	566
T_JUDGE_TAP	513
T_JUDGE_HLD	64
T_JUDGE_SLD	26
T_JUDGE_ALL	603
TTM_EACHPAIRS	103
TTM_SCR_TAP	248000
TTM_SCR_BRK	44200
TTM_SCR_HLD	27000
TTM_SCR_SLD	39000
TTM_SCR_ALL	358200
TTM_SCR_S	345850
TTM_SCR_SS	356500
TTM_RAT_ACV	10047

