VERSION	0.00.00	1.03.00
FES_MODE	0
BPM_DEF	150.000	150.000	150.000	150.000
MET_DEF	4	4
RESOLUTION	384
CLK_DEF	384
COMPATIBLE_CODE	MA2

BPM	0	0	150.000
MET	0	0	4	4

STR	1	0	0
SI_	1	0	0	96	192	3
STR	2	0	7
SI_	2	0	7	96	192	4
STR	3	0	0
SI_	3	0	0	96	192	3
STR	4	0	7
SI_	4	0	7	96	192	4
BRK	5	0	0
TAP	5	96	1
TAP	5	192	2
TAP	5	288	3
TAP	6	0	7
TAP	6	96	6
TAP	6	192	5
TAP	6	288	4
TAP	7	0	3
TAP	7	96	4
TAP	7	192	2
TAP	7	288	5
TAP	8	0	1
TAP	8	96	6
HLD	8	192	0	96
TAP	8	288	7
TAP	9	0	1
TAP	9	96	0
TAP	9	192	7
TAP	9	288	6
TAP	10	0	6
TAP	10	96	7
TAP	10	192	0
TAP	10	288	1
TAP	11	0	2
TAP	11	96	3
TAP	11	192	4
TAP	11	288	5
TAP	12	0	5
TAP	12	96	4
BRK	12	192	3
HLD	13	0	2	288
TAP	14	0	1
TAP	14	0	3
HLD	15	0	5	288
TAP	16	0	4
TAP	16	0	6
TAP	16	192	0
TAP	16	192	7
HLD	17	0	0	288
HLD	17	0	7	288
TAP	18	0	1
TAP	18	0	6
HLD	19	0	2	288
HLD	19	0	4	288
HLD	20	0	3	288
HLD	20	0	5	288
TAP	21	0	0
TAP	21	96	0
TAP	21	192	4
TAP	21	288	4
TAP	22	0	2
TAP	22	96	2
TAP	22	192	6
TAP	22	288	6
TAP	23	0	1
TAP	23	96	1
TAP	23	192	5
TAP	23	288	5
TAP	24	0	3
TAP	24	96	3
BRK	24	192	7
STR	25	0	0
SI_	25	0	0	96	192	4
TAP	26	0	3
TAP	26	0	5
STR	27	0	7
SI_	27	0	7	96	192	3
TAP	28	0	2
TAP	28	0	4
STR	29	0	1
SI_	29	0	1	96	192	4
STR	29	0	5
SI_	29	0	5	96	192	0
TAP	30	0	3
TAP	30	0	7
STR	31	0	2
SI_	31	0	2	96	192	7
STR	31	0	6
SI_	31	0	6	96	192	3
TAP	32	0	0
TAP	32	0	4
TAP	32	192	1
TAP	32	192	5
TAP	33	0	2
TAP	33	0	6
TAP	33	192	1
TAP	33	192	5
TAP	34	0	2
TAP	34	0	3
TAP	34	96	2
TAP	34	96	3
BRK	34	192	2
BRK	34	192	3
TAP	35	0	1
TAP	35	0	5
TAP	35	192	2
TAP	35	192	6
TAP	36	0	4
TAP	36	0	5
TAP	36	96	4
TAP	36	96	5
BRK	36	192	4
BRK	36	192	5
TAP	37	0	2
TAP	37	0	3
TAP	37	192	4
TAP	37	192	5
TAP	38	0	2
TAP	38	0	3
TAP	38	96	4
TAP	38	96	5
BRK	38	192	2
BRK	38	192	3
TAP	39	0	1
TAP	39	0	6
TAP	39	192	1
TAP	39	192	6
TAP	40	0	0
TAP	40	0	7
TAP	40	96	0
TAP	40	96	7
BRK	40	192	0
BRK	40	192	7
BRK	41	0	0
TAP	41	192	7
TAP	42	0	1
TAP	42	96	0
TAP	42	192	7
TAP	42	288	6
TAP	43	0	7
TAP	43	192	0
TAP	44	0	5
TAP	44	96	4
TAP	44	192	3
TAP	44	288	2
TAP	45	0	1
TAP	45	192	1
TAP	46	0	1
TAP	46	96	3
TAP	46	192	5
TAP	46	288	7
TAP	47	0	6
TAP	47	192	6
TAP	48	0	6
TAP	48	96	4
TAP	48	192	2
TAP	48	288	0
HLD	49	0	0	384
HLD	49	0	7	384
TAP	51	0	0
TAP	52	0	0
TAP	53	0	7
TAP	54	0	7
TAP	55	0	1
TAP	56	0	2
TAP	57	0	3
TAP	58	0	4
TAP	59	0	5
TAP	59	192	5
TAP	60	0	4
TAP	60	0	5
TAP	60	96	4
TAP	60	96	5
TAP	60	192	4
TAP	60	192	5
TAP	61	0	2
TAP	61	192	2
TAP	62	0	2
TAP	62	0	3
TAP	62	96	2
TAP	62	96	3
TAP	62	192	2
TAP	62	192	3
TAP	63	0	5
TAP	63	192	4
TAP	64	0	4
TAP	64	0	5
TAP	64	96	3
TAP	64	96	6
TAP	64	192	4
TAP	64	192	5
TAP	65	0	2
TAP	65	192	3
TAP	66	0	2
TAP	66	0	3
TAP	66	96	1
TAP	66	96	4
TAP	66	192	0
TAP	66	192	5
TAP	66	288	6
TAP	66	288	7
HLD	67	0	6	672
HLD	67	0	7	672
STR	69	0	0
SI_	69	0	0	96	96	3
STR	69	192	4
SI_	69	192	4	96	96	7
TAP	70	0	0
TAP	70	96	1
TAP	70	192	2
TAP	70	288	3
STR	71	0	7
SI_	71	0	7	96	96	4
STR	71	192	3
SI_	71	192	3	96	96	0
TAP	72	0	7
TAP	72	96	6
TAP	72	192	5
TAP	72	288	4
STR	73	0	0
SI_	73	0	0	96	96	2
STR	73	192	7
SI_	73	192	7	96	96	5
STR	74	0	1
SI_	74	0	1	96	96	3
STR	74	192	6
SI_	74	192	6	96	96	4
TAP	75	0	3
TAP	75	96	2
TAP	75	192	1
TAP	75	288	0
TAP	76	0	7
TAP	76	96	6
TAP	76	192	5
BRK	76	288	4
STR	77	0	0
SSL	77	0	0	96	144	4
STR	78	0	7
SSR	78	0	7	96	144	3
TAP	79	0	1
TAP	79	96	0
TAP	79	192	7
TAP	79	288	6
TAP	80	0	4
TAP	80	0	5
TAP	80	96	4
TAP	80	96	5
TAP	80	192	4
TAP	80	192	5
TAP	80	288	4
TAP	80	288	5
STR	81	0	6
SCR	81	0	6	96	144	1
STR	82	0	2
SUL	82	0	2	96	144	5
TAP	83	0	6
TAP	83	96	7
TAP	83	192	0
TAP	83	288	1
TAP	84	0	2
TAP	84	0	3
TAP	84	96	2
TAP	84	96	3
TAP	84	192	2
TAP	84	192	3
TAP	84	288	2
TAP	84	288	3
TAP	85	0	0
TAP	85	0	4
TAP	85	96	1
TAP	85	96	5
TAP	85	192	2
TAP	85	192	6
TAP	85	288	3
TAP	85	288	7
BRK	86	0	0
BRK	86	0	7
HLD	87	0	0	336
HLD	87	0	7	336

T_REC_TAP	204
T_REC_BRK	15
T_REC_XTP	0
T_REC_HLD	15
T_REC_XHO	0
T_REC_STR	22
T_REC_BST	0
T_REC_XST	0
T_REC_TTP	0
T_REC_THO	0
T_REC_SLD	22
T_REC_ALL	278
T_NUM_TAP	226
T_NUM_BRK	15
T_NUM_HLD	15
T_NUM_SLD	22
T_NUM_ALL	278
T_JUDGE_TAP	241
T_JUDGE_HLD	108
T_JUDGE_SLD	22
T_JUDGE_ALL	371
TTM_EACHPAIRS	63
TTM_SCR_TAP	113000
TTM_SCR_BRK	39000
TTM_SCR_HLD	15000
TTM_SCR_SLD	33000
TTM_SCR_ALL	200000
TTM_SCR_S	192550
TTM_SCR_SS	198500
TTM_RAT_ACV	10075

