VERSION	0.00.00	1.03.00
FES_MODE	0
BPM_DEF	150.000	150.000	150.000	150.000
MET_DEF	4	4
RESOLUTION	384
CLK_DEF	384
COMPATIBLE_CODE	MA2

BPM	0	0	150.000
MET	0	0	4	4

TAP	5	0	0
TAP	5	192	0
TAP	6	0	1
TAP	6	192	1
TAP	7	0	2
TAP	7	192	2
TAP	8	0	3
TAP	9	0	4
TAP	9	192	4
TAP	10	0	5
TAP	10	192	5
TAP	11	0	6
TAP	11	192	6
TAP	12	0	7
TAP	13	0	1
TAP	13	0	6
TAP	14	0	7
TAP	15	0	6
TAP	16	0	5
TAP	16	192	5
TAP	17	0	3
TAP	17	0	4
TAP	18	0	2
TAP	19	0	1
TAP	20	0	0
TAP	20	192	0
HLD	21	0	7	384
HLD	23	0	0	384
TAP	25	0	1
TAP	26	0	6
TAP	27	0	2
TAP	28	0	5
TAP	29	0	0
TAP	29	0	7
TAP	30	0	1
TAP	30	0	6
TAP	31	0	2
TAP	31	0	5
TAP	32	0	3
TAP	32	0	4
TAP	32	192	3
TAP	32	192	4
TAP	33	0	5
TAP	33	192	6
TAP	34	0	7
TAP	34	192	7
TAP	34	288	7
TAP	35	0	0
TAP	35	192	1
TAP	36	0	2
TAP	36	192	2
TAP	36	288	2
HLD	37	0	3	192
HLD	38	0	4	192
TAP	39	0	2
TAP	39	0	5
TAP	39	192	2
TAP	39	192	5
TAP	40	0	1
TAP	40	0	6
TAP	40	96	1
TAP	40	96	6
BRK	40	192	1
BRK	40	192	6
TAP	41	0	0
TAP	41	192	7
TAP	42	0	1
TAP	42	192	6
TAP	43	0	2
TAP	43	192	5
TAP	44	0	1
TAP	44	192	6
TAP	45	0	0
TAP	45	192	0
TAP	46	0	1
TAP	46	96	1
TAP	46	192	1
TAP	47	0	7
TAP	47	192	7
TAP	48	0	6
TAP	48	96	6
TAP	48	192	6
HLD	49	0	0	192
HLD	49	0	7	192
STR	50	0	0
SI_	50	0	0	96	288	4
TAP	52	0	0
TAP	52	192	1
TAP	53	0	2
TAP	54	0	5
TAP	54	192	6
TAP	55	0	7
TAP	56	0	2
TAP	56	192	3
TAP	57	0	4
HLD	58	0	0	192
HLD	58	0	7	192
TAP	59	0	1
TAP	59	192	2
TAP	60	0	1
TAP	60	96	1
BRK	60	192	0
BRK	60	192	7
TAP	61	0	6
TAP	61	192	5
TAP	62	0	6
TAP	62	96	6
BRK	62	192	0
BRK	62	192	7
TAP	63	0	7
TAP	63	96	7
TAP	63	192	6
TAP	63	288	6
TAP	64	0	5
TAP	64	96	5
TAP	64	192	4
TAP	65	0	3
TAP	65	96	3
TAP	65	192	2
TAP	65	288	2
TAP	66	0	1
TAP	66	96	1
TAP	66	192	0
STR	67	0	7
SI_	67	0	7	96	288	3
TAP	69	0	0
TAP	69	192	7
TAP	70	0	1
TAP	70	192	6
TAP	71	0	2
TAP	71	192	5
TAP	72	0	1
TAP	72	192	6
TAP	73	0	1
TAP	73	96	1
TAP	73	192	1
TAP	74	0	0
TAP	74	96	0
TAP	74	192	0
TAP	75	0	6
TAP	75	96	6
TAP	75	192	6
TAP	76	0	7
TAP	76	96	7
TAP	76	192	7
TAP	77	0	0
TAP	77	96	0
TAP	77	192	1
TAP	77	288	1
TAP	78	0	2
TAP	78	96	2
BRK	78	192	3
TAP	79	0	4
TAP	79	96	4
TAP	79	192	5
TAP	79	288	5
TAP	80	0	6
TAP	80	96	6
BRK	80	192	7
TAP	81	0	0
TAP	81	96	0
TAP	81	192	1
TAP	81	288	1
TAP	82	0	2
TAP	82	96	2
TAP	82	192	3
TAP	82	288	3
TAP	83	0	4
TAP	83	96	4
TAP	83	192	5
TAP	83	288	5
TAP	84	0	6
TAP	84	96	6
TAP	84	192	7
BRK	84	288	7
HLD	85	0	1	192
HLD	85	0	6	192
STR	86	0	0
SI_	86	0	0	96	480	4

T_REC_TAP	154
T_REC_BRK	9
T_REC_XTP	0
T_REC_HLD	10
T_REC_XHO	0
T_REC_STR	3
T_REC_BST	0
T_REC_XST	0
T_REC_TTP	0
T_REC_THO	0
T_REC_SLD	3
T_REC_ALL	179
T_NUM_TAP	157
T_NUM_BRK	9
T_NUM_HLD	10
T_NUM_SLD	3
T_NUM_ALL	179
T_JUDGE_TAP	166
T_JUDGE_HLD	48
T_JUDGE_SLD	3
T_JUDGE_ALL	217
TTM_EACHPAIRS	17
TTM_SCR_TAP	78500
TTM_SCR_BRK	23400
TTM_SCR_HLD	10000
TTM_SCR_SLD	4500
TTM_SCR_ALL	116400
TTM_SCR_S	112050
TTM_SCR_SS	115500
TTM_RAT_ACV	10077

