VERSION	0.00.00	1.03.00
FES_MODE	0
BPM_DEF	150.000	150.000	150.000	150.000
MET_DEF	4	4
RESOLUTION	384
CLK_DEF	384
COMPATIBLE_CODE	MA2

BPM	0	0	150.000
MET	0	0	4	4

TAP	3	0	0
TAP	3	96	5
STR	3	192	7
SI_	3	192	7	96	48	4
STR	4	0	0
SCL	4	0	0	96	96	5
STR	4	96	5
SCL	4	96	5	96	96	2
STR	4	192	2
SUL	4	192	2	96	96	5
HLD	5	0	7	96
TAP	5	96	6
TAP	5	144	5
HLD	5	192	0	96
TAP	5	288	1
TAP	5	336	2
HLD	6	0	6	96
TAP	6	96	5
TAP	6	144	4
HLD	6	192	1	96
TAP	6	288	2
TAP	6	336	3
HLD	7	0	4	96
TAP	7	96	5
TAP	7	144	6
HLD	7	192	3	96
TAP	7	288	2
TAP	7	336	1
HLD	8	0	5	96
TAP	8	96	6
TAP	8	144	7
HLD	8	192	2	96
TAP	8	288	0
TAP	9	0	2
TAP	9	24	3
TAP	9	72	3
TAP	9	96	1
TAP	9	144	1
TAP	9	240	3
TAP	9	240	6
TAP	9	288	4
TAP	9	288	5
TAP	10	0	5
TAP	10	24	4
TAP	10	72	4
TAP	10	96	6
TAP	10	144	6
TAP	10	240	1
TAP	10	240	4
TAP	10	288	2
TAP	10	288	3
HLD	11	0	6	96
STR	11	96	5
SUL	11	96	5	96	144	2
HLD	12	0	7	96
HLD	12	96	1	96
TAP	12	192	0
TAP	12	216	0
TAP	12	264	1
TAP	12	264	7
HLD	13	0	0	96
HLD	13	96	6	96
TAP	13	192	7
TAP	13	216	7
TAP	13	264	0
TAP	13	264	6
HLD	14	0	6	72
TAP	14	72	7
TAP	14	96	6
TAP	14	144	6
HLD	14	192	1	72
TAP	14	264	0
TAP	14	288	1
TAP	14	336	1
HLD	15	0	6	72
TAP	15	72	7
TAP	15	96	6
TAP	15	144	6
HLD	15	192	5	72
TAP	15	264	4
TAP	15	288	5
TAP	15	336	5
HLD	16	0	6	72
TAP	16	72	7
TAP	16	96	6
TAP	16	144	6
HLD	16	192	2	72
TAP	16	264	3
TAP	16	288	2
TAP	16	336	2
STR	17	0	6
SCR	17	0	6	96	192	4
HLD	18	0	1	72
TAP	18	72	0
TAP	18	96	1
TAP	18	144	1
HLD	18	192	6	72
TAP	18	264	7
TAP	18	288	6
TAP	18	336	6
HLD	19	0	1	72
TAP	19	72	0
TAP	19	96	1
TAP	19	144	1
HLD	19	192	2	72
TAP	19	264	3
TAP	19	288	2
TAP	19	336	2
HLD	20	0	1	72
TAP	20	72	0
TAP	20	96	1
TAP	20	144	1
HLD	20	192	5	72
TAP	20	264	4
TAP	20	288	5
TAP	20	336	5
STR	21	0	2
SSL	21	0	2	96	192	6
HLD	22	0	6	72
TAP	22	72	7
TAP	22	96	6
TAP	22	144	5
TAP	22	192	4
TAP	22	240	3
TAP	22	288	2
HLD	23	0	0	96
STR	23	96	1
SUR	23	96	1	96	144	2
HLD	24	0	1	72
TAP	24	72	0
TAP	24	96	1
TAP	24	144	2
TAP	24	192	3
TAP	24	240	4
TAP	24	288	5
HLD	25	0	7	96
STR	25	96	6
SUL	25	96	6	96	144	5
HLD	26	0	1	96
HLD	26	96	3	96
HLD	26	192	5	96
STR	26	288	7
SCL	26	288	7	96	144	0
HLD	27	192	1	96
STR	27	288	0
SCR	27	288	0	96	288	7
TAP	29	48	1
TAP	29	48	7
TAP	29	120	0
TAP	29	120	6
TAP	29	192	7
TAP	29	216	7
TAP	29	240	0
TAP	29	264	7
HLD	30	0	6	96
HLD	30	96	5	96
HLD	30	192	4	96
HLD	30	288	3	96
HLD	31	0	1	96
HLD	31	96	2	96
HLD	31	192	3	96
HLD	31	288	4	96
HLD	32	0	7	96
HLD	32	96	6	96
HLD	32	192	5	96
HLD	32	288	4	96
HLD	33	0	0	96
HLD	33	96	1	96
HLD	33	192	2	96
TAP	33	288	3
HLD	34	0	2	144
HLD	34	0	7	144
TAP	34	192	3
TAP	34	192	4
TAP	34	240	3
TAP	34	240	4
HLD	35	0	0	144
HLD	35	0	5	144
TAP	35	192	3
TAP	35	192	4
TAP	35	240	3
TAP	35	240	4
TAP	36	0	3
TAP	36	24	4
TAP	36	48	3
TAP	36	72	4
TAP	36	96	3
TAP	36	120	4
TAP	36	144	3
TAP	36	168	4
TAP	36	192	3
TAP	36	216	4
TAP	36	240	3
TAP	36	264	4
TAP	36	288	3
TAP	36	312	4
TAP	36	336	3
TAP	36	360	4
TAP	37	0	3
TAP	37	24	4
TAP	37	48	3
TAP	37	72	4
TAP	37	96	3
TAP	37	120	4
TAP	37	144	3
TAP	37	168	4
TAP	37	192	3
TAP	37	216	4
TAP	37	240	3
TAP	37	264	4
TAP	37	288	3
TAP	37	312	4
TAP	37	336	3
TAP	37	360	4
TAP	38	0	3
BRK	38	96	1
BRK	38	96	6
TAP	39	0	1
TAP	39	0	6
TAP	39	64	1
TAP	39	96	6
TAP	39	128	0
TAP	39	160	7
TAP	39	192	1
TAP	39	192	6
BRK	40	0	0
BRK	40	0	6
TAP	40	96	2
TAP	40	96	3
BRK	40	192	1
BRK	40	192	7
STR	40	288	4
SCL	40	288	4	96	144	6
TAP	40	288	5
BRK	41	192	2
BRK	41	192	7
STR	42	0	0
SCL	42	0	0	96	96	4
TAP	42	0	1
TAP	42	240	7
TAP	42	288	7
TAP	42	336	7
TAP	43	0	6
STR	43	0	7
SCR	43	0	7	96	96	3
TAP	43	240	5
TAP	43	288	4
TAP	43	336	3
TAP	44	0	2
STR	44	0	3
SCR	44	0	3	96	96	7
TAP	44	240	2
TAP	44	288	3
TAP	44	336	4
STR	45	0	4
SCL	45	0	4	96	96	0
TAP	45	0	5
TAP	45	240	4
TAP	45	288	5
TAP	45	336	6
TAP	46	0	6
STR	46	0	7
SCR	46	0	7	96	48	2
STR	46	192	0
SCL	46	192	0	96	48	5
STR	47	0	7
SCR	47	0	7	96	48	2
STR	47	192	0
SCL	47	192	0	96	48	5
HLD	48	96	6	96
HLD	48	192	7	96
HLD	48	288	0	96
HLD	49	0	1	192
STR	49	192	2
SI_	49	192	2	96	48	7
TAP	50	0	1
TAP	50	0	6
TAP	50	96	3
TAP	50	120	4
TAP	50	144	3
TAP	50	168	4
TAP	50	192	2
TAP	50	216	5
TAP	50	240	2
TAP	50	264	5
TAP	50	288	3
TAP	50	312	4
TAP	50	336	3
TAP	51	0	6
TAP	51	0	7
TAP	51	72	0
TAP	51	72	1
BRK	51	144	1
BRK	51	144	6
TAP	52	0	5
TAP	52	64	4
TAP	52	128	3
TAP	52	192	2
TAP	52	256	3
TAP	52	320	4
TAP	53	0	5
TAP	53	64	4
TAP	53	128	3
TAP	53	192	2
TAP	53	256	3
TAP	53	320	4
TAP	54	0	5
TAP	54	64	4
TAP	54	128	3
TAP	54	192	2
TAP	54	256	3
TAP	54	320	4
STR	55	0	5
SCL	55	0	5	96	192	2
HLD	57	0	5	96
TAP	57	96	3
TAP	57	160	2
TAP	57	192	3
TAP	57	288	2
TAP	57	288	3
HLD	58	0	2	96
TAP	58	96	4
TAP	58	160	5
TAP	58	192	4
TAP	58	256	2
TAP	58	320	0
TAP	59	0	5
TAP	59	64	5
TAP	59	96	4
TAP	59	160	4
TAP	59	192	3
TAP	59	256	3
TAP	59	288	2
TAP	59	352	2
TAP	60	0	1
TAP	60	64	1
TAP	60	96	0
TAP	60	160	0
TAP	60	192	7
TAP	60	224	0
TAP	60	256	7
TAP	60	288	0
TAP	63	0	3
TAP	63	16	3
TAP	63	32	3
TAP	63	48	3
TAP	63	64	3
TAP	63	80	3
TAP	63	96	3
TAP	63	112	3
TAP	63	128	3
TAP	63	144	3
TAP	63	160	3
TAP	63	176	3
TAP	63	192	3
TAP	63	208	3
TAP	63	224	3
TAP	63	240	3
TAP	63	256	3
TAP	63	272	3
TAP	63	288	3
TAP	63	304	3
TAP	63	320	3
TAP	63	336	3
TAP	63	352	3
TAP	63	368	3
TAP	64	0	3
TAP	64	16	3
TAP	64	32	3
TAP	64	48	3
TAP	64	64	3
TAP	64	80	3
TAP	64	96	3
TAP	64	112	3
TAP	64	128	3
TAP	64	144	3
TAP	64	160	3
TAP	64	176	3
TAP	64	192	3
TAP	64	208	3
TAP	64	224	3
TAP	64	240	3
TAP	64	256	3
TAP	64	272	3
TAP	64	288	3
TAP	64	304	3
TAP	64	320	3
TAP	64	336	3
TAP	64	352	3
TAP	64	368	3
TAP	65	0	3
BRK	66	96	1
BRK	66	96	6
BRK	66	192	1
BRK	66	192	6
BRK	67	0	1
BRK	67	0	7
TAP	67	96	4
TAP	67	96	5
BRK	67	192	0
BRK	67	192	6
TAP	67	288	2
STR	67	288	3
SCR	67	288	3	96	144	1
BRK	68	192	0
BRK	68	192	5
TAP	69	0	7
TAP	69	48	2
TAP	69	72	3
TAP	69	96	2
TAP	69	144	5
TAP	69	168	4
TAP	69	192	5
TAP	69	240	2
TAP	69	264	3
TAP	69	288	2
TAP	69	336	5
TAP	69	360	4
TAP	70	0	5
TAP	70	48	2
TAP	70	72	3
TAP	70	96	2
TAP	70	144	5
TAP	70	168	4
TAP	70	192	5
TAP	70	240	2
TAP	70	264	3
TAP	70	288	2
TAP	70	336	6
TAP	70	360	4
TAP	71	0	5
TAP	71	48	1
TAP	71	72	3
TAP	71	96	2
TAP	71	144	6
TAP	71	168	4
TAP	71	192	5
TAP	71	240	1
TAP	71	264	3
TAP	71	288	2
TAP	71	336	6
TAP	71	360	4
TAP	72	0	5
TAP	72	48	1
TAP	72	72	3
TAP	72	96	2
TAP	72	144	6
TAP	72	168	4
TAP	72	192	5
TAP	72	240	1
TAP	72	288	0
TAP	72	336	7
TAP	73	0	6
STR	73	96	2
SUL	73	96	2	96	96	5
TAP	73	144	2
HLD	73	336	6	96
STR	74	48	5
SCR	74	48	5	96	96	2
TAP	74	96	5
STR	74	336	2
SI_	74	336	2	96	48	7
STR	74	336	3
SI_	74	336	3	96	48	6
STR	75	144	4
SI_	75	144	4	96	48	1
STR	75	144	5
SI_	75	144	5	96	48	0
STR	75	336	0
SCL	75	336	0	96	96	4
STR	75	336	7
SCR	75	336	7	96	96	3
TAP	76	240	6
TAP	76	240	7
TAP	76	288	0
TAP	76	288	5
TAP	76	336	1
TAP	76	336	4
STR	77	0	2
SCL	77	0	2	96	96	7
STR	77	0	3
SCR	77	0	3	96	96	6
TAP	77	240	0
TAP	77	240	1
TAP	77	288	2
TAP	77	288	7
TAP	77	336	3
TAP	77	336	6
STR	78	0	4
SCL	78	0	4	96	96	1
STR	78	0	5
SCR	78	0	5	96	96	0
TAP	78	240	6
TAP	78	240	7
TAP	78	288	0
TAP	78	288	5
TAP	78	336	1
TAP	78	336	4
STR	79	0	2
SV_	79	0	2	96	96	5
STR	79	0	3
SI_	79	0	3	96	96	0
TAP	79	240	0
TAP	79	240	1
TAP	79	288	2
TAP	79	288	7
TAP	79	336	3
TAP	79	336	6
STR	80	0	4
SI_	80	0	4	96	96	7
STR	80	0	5
SV_	80	0	5	96	96	2
TAP	80	240	0
TAP	80	288	0
HLD	80	336	1	96
TAP	81	48	2
TAP	81	96	1
TAP	81	144	1
TAP	81	192	0
TAP	81	216	1
TAP	81	240	2
HLD	81	336	5	96
TAP	82	48	6
TAP	82	96	6
TAP	82	192	7
TAP	82	215	6
TAP	82	239	5
STR	82	336	4
SV_	82	336	4	96	96	1
STR	82	336	6
SI_	82	336	6	96	96	1
STR	83	192	0
SV_	83	192	0	96	96	3
STR	83	192	5
SV_	83	192	5	96	96	3
HLD	84	96	6	96
HLD	84	192	7	96
HLD	84	288	0	96
STR	85	0	1
SCL	85	0	1	96	48	6
TAP	85	192	0
TAP	85	192	5
TAP	85	288	2
TAP	85	288	7
BRK	86	0	1
BRK	86	0	6
TAP	86	96	7
TAP	86	120	0
TAP	86	144	7
TAP	86	168	0
TAP	86	192	6
TAP	86	216	1
TAP	86	240	6
TAP	86	264	1
TAP	86	288	7
TAP	86	312	0
TAP	86	336	7
TAP	87	0	1
TAP	87	0	5
STR	87	72	2
SUL	87	72	2	96	48	5
STR	87	72	6
SCR	87	72	6	96	48	1
TAP	89	48	3
TAP	89	48	5
TAP	89	120	2
TAP	89	120	4
STR	89	192	0
SCL	89	192	0	96	48	5
STR	89	192	7
SCR	89	192	7	96	48	2

T_REC_TAP	389
T_REC_BRK	22
T_REC_XTP	0
T_REC_HLD	64
T_REC_XHO	0
T_REC_STR	48
T_REC_BST	0
T_REC_XST	0
T_REC_TTP	0
T_REC_THO	0
T_REC_SLD	48
T_REC_ALL	571
T_NUM_TAP	437
T_NUM_BRK	22
T_NUM_HLD	64
T_NUM_SLD	48
T_NUM_ALL	571
T_JUDGE_TAP	459
T_JUDGE_HLD	134
T_JUDGE_SLD	48
T_JUDGE_ALL	641
TTM_EACHPAIRS	68
TTM_SCR_TAP	218500
TTM_SCR_BRK	57200
TTM_SCR_HLD	64000
TTM_SCR_SLD	72000
TTM_SCR_ALL	411700
TTM_SCR_S	397250
TTM_SCR_SS	409500
TTM_RAT_ACV	10053

