VERSION	0.00.00	1.03.00
FES_MODE	0
BPM_DEF	150.000	150.000	150.000	150.000
MET_DEF	4	4
RESOLUTION	384
CLK_DEF	384
COMPATIBLE_CODE	MA2

BPM	0	0	150.000
MET	0	0	4	4

TAP	1	0	3
TAP	1	0	4
STR	1	360	3
SI_	1	360	3	96	72	0
TAP	1	360	5
HLD	3	0	2	96
HLD	3	96	3	96
HLD	3	192	4	96
BRK	3	288	6
HLD	4	0	5	96
HLD	4	96	4	96
HLD	4	192	3	96
BRK	4	288	1
TAP	5	0	0
TAP	5	0	1
TAP	5	96	3
TAP	5	192	6
TAP	5	192	7
TAP	5	288	4
HLD	6	0	1	192
TAP	6	192	0
TAP	7	0	6
TAP	7	0	7
TAP	7	96	4
TAP	7	192	0
TAP	7	192	1
TAP	7	288	3
HLD	8	0	6	192
TAP	8	192	7
HLD	9	0	2	96
TAP	9	96	4
TAP	9	144	4
TAP	9	240	0
TAP	9	288	7
HLD	10	0	5	96
TAP	10	96	3
TAP	10	144	3
TAP	10	240	7
TAP	10	288	0
HLD	11	0	2	96
HLD	11	96	3	96
HLD	11	192	4	96
HLD	11	288	5	96
STR	12	0	6
SCR	12	0	6	96	96	1
STR	13	0	2
SCR	13	0	2	96	96	5
TAP	14	0	1
TAP	14	96	3
TAP	14	192	4
TAP	14	288	5
TAP	14	288	7
TAP	15	0	6
TAP	15	96	4
TAP	15	192	3
TAP	15	288	0
TAP	15	288	2
HLD	16	0	1	288
HLD	16	0	6	288
STR	17	0	1
SUR	17	0	1	96	96	6
TAP	18	0	6
TAP	18	96	4
TAP	18	192	3
TAP	18	288	0
TAP	18	288	2
TAP	19	0	1
TAP	19	96	3
TAP	19	192	4
TAP	19	288	5
TAP	19	288	7
HLD	20	0	1	288
HLD	20	0	6	288
STR	21	0	5
SUR	21	0	5	96	96	2
TAP	22	0	1
TAP	22	96	1
TAP	22	192	7
TAP	22	240	0
TAP	22	288	7
STR	23	0	0
SUL	23	0	0	96	96	3
STR	23	0	1
SV_	23	0	1	96	96	2
TAP	24	0	6
TAP	24	96	6
TAP	24	192	0
TAP	24	240	7
TAP	24	288	0
STR	25	0	6
SV_	25	0	6	96	96	5
STR	25	0	7
SUR	25	0	7	96	96	4
TAP	26	0	2
TAP	26	0	4
TAP	26	96	3
TAP	26	96	5
TAP	26	192	1
TAP	26	192	4
TAP	26	288	3
TAP	26	288	6
TAP	27	0	0
TAP	27	0	7
TAP	27	192	3
TAP	27	192	4
STR	27	288	3
SCL	27	288	3	96	192	0
STR	27	288	4
SCR	27	288	4	96	192	7
TAP	29	0	0
TAP	29	96	7
BRK	29	192	0
BRK	29	192	7
TAP	30	0	1
TAP	30	96	2
TAP	30	192	3
TAP	30	288	4
TAP	31	0	6
TAP	31	96	5
TAP	31	192	4
TAP	31	288	3
TAP	32	0	0
TAP	32	0	1
TAP	32	96	2
TAP	32	96	3
TAP	32	192	4
TAP	32	192	5
TAP	32	288	6
TAP	32	288	7
TAP	33	0	0
TAP	33	0	1
TAP	33	96	6
TAP	33	96	7
TAP	33	192	4
TAP	33	192	5
TAP	33	288	2
TAP	33	288	3
TAP	34	0	1
TAP	34	192	3
TAP	34	192	4
TAP	34	240	3
TAP	34	240	4
TAP	35	0	6
TAP	35	192	3
TAP	35	192	4
TAP	35	240	3
TAP	35	240	4
TAP	36	0	3
TAP	36	48	3
TAP	36	96	3
TAP	36	144	3
TAP	36	192	4
TAP	36	240	4
TAP	36	288	4
TAP	36	336	4
TAP	37	0	3
TAP	37	48	3
TAP	37	96	3
TAP	37	144	3
TAP	37	192	4
TAP	37	240	4
TAP	37	288	4
TAP	37	336	4
BRK	38	0	3
TAP	39	0	0
TAP	39	96	7
BRK	39	192	0
BRK	39	192	7
TAP	40	0	5
BRK	40	96	0
TAP	40	192	5
BRK	40	288	0
TAP	41	0	3
HLD	41	0	5	192
TAP	41	96	3
BRK	41	192	0
HLD	42	0	1	96
TAP	42	96	0
HLD	42	192	6	96
TAP	42	288	7
HLD	43	0	1	96
TAP	43	96	0
HLD	43	192	6	96
TAP	43	288	7
HLD	44	0	2	96
TAP	44	96	0
HLD	44	192	5	96
TAP	44	288	7
HLD	45	0	2	96
TAP	45	96	0
HLD	45	192	5	96
TAP	45	288	7
TAP	46	0	2
TAP	46	0	3
TAP	46	96	2
TAP	46	96	3
HLD	46	192	1	96
HLD	46	192	4	96
TAP	47	0	4
TAP	47	0	5
TAP	47	96	4
TAP	47	96	5
HLD	47	192	3	96
HLD	47	192	6	96
TAP	48	0	3
BRK	48	96	4
BRK	48	192	5
BRK	48	288	6
BRK	49	0	7
TAP	49	192	3
TAP	49	192	4
STR	49	288	3
SCL	49	288	3	96	192	0
STR	49	288	4
SCR	49	288	4	96	192	7
TAP	51	0	0
TAP	51	72	7
TAP	51	144	1
TAP	51	144	6
STR	52	0	1
SCR	52	0	1	96	384	5
STR	54	48	6
SCL	54	48	6	96	384	2
TAP	57	0	3
STR	57	144	3
SI_	57	144	3	96	96	0
TAP	57	192	3
TAP	58	0	4
STR	58	144	4
SI_	58	144	4	96	96	7
TAP	58	192	4
HLD	59	0	2	96
HLD	59	192	4	96
HLD	59	192	5	96
HLD	60	0	1	192
HLD	60	0	6	192
HLD	61	0	3	720
HLD	62	0	4	336
TAP	63	96	3
TAP	63	288	3
TAP	63	312	3
TAP	63	336	3
TAP	63	360	3
TAP	64	0	3
TAP	64	24	3
TAP	64	48	3
TAP	64	72	3
TAP	64	96	3
TAP	64	120	3
TAP	64	144	3
TAP	64	168	3
TAP	64	192	3
BRK	65	0	2
BRK	65	0	5
BRK	66	0	1
BRK	66	0	7
BRK	66	96	0
BRK	66	96	6
BRK	66	192	1
BRK	66	192	7
TAP	67	0	2
TAP	67	0	3
BRK	67	96	6
BRK	67	96	7
TAP	67	192	4
TAP	67	192	5
BRK	67	288	0
BRK	67	288	1
TAP	68	0	3
TAP	68	0	4
STR	68	96	3
SI_	68	96	3	96	48	0
STR	68	96	4
SI_	68	96	4	96	48	7
TAP	69	0	1
TAP	69	96	0
TAP	69	96	1
TAP	69	192	6
TAP	69	288	6
TAP	69	288	7
TAP	70	0	1
TAP	70	96	0
TAP	70	96	1
TAP	70	192	6
TAP	70	288	6
TAP	70	288	7
TAP	71	0	5
TAP	71	96	1
TAP	71	96	7
TAP	71	192	2
TAP	71	288	0
TAP	71	288	6
TAP	72	0	5
TAP	72	96	1
TAP	72	96	7
TAP	72	192	2
TAP	72	288	0
TAP	72	288	6
TAP	73	0	1
TAP	73	0	3
TAP	73	96	2
TAP	73	96	4
TAP	73	192	3
TAP	73	192	5
TAP	73	288	4
TAP	73	288	6
TAP	74	0	5
TAP	74	0	7
TAP	74	96	0
TAP	74	96	6
TAP	74	192	1
TAP	74	192	7
TAP	74	288	0
TAP	74	288	2
STR	75	0	2
SI_	75	0	2	96	48	7
STR	75	192	5
SI_	75	192	5	96	48	0
STR	76	0	1
SUR	76	0	1	96	144	4
TAP	77	0	5
TAP	77	96	1
TAP	77	96	7
TAP	77	192	2
TAP	77	288	0
TAP	77	288	6
TAP	78	0	5
TAP	78	96	1
TAP	78	96	7
TAP	78	192	2
TAP	78	288	0
TAP	78	288	6
TAP	79	0	4
TAP	79	0	5
TAP	79	96	1
TAP	79	96	7
TAP	79	192	2
TAP	79	192	3
TAP	79	288	0
TAP	79	288	6
TAP	80	0	4
TAP	80	0	5
TAP	80	96	1
TAP	80	96	7
TAP	80	192	2
TAP	80	192	3
TAP	80	288	0
TAP	80	288	6
HLD	81	0	5	96
HLD	81	96	3	96
HLD	81	192	1	96
TAP	81	288	0
HLD	82	0	2	96
HLD	82	96	4	96
HLD	82	192	6	96
TAP	82	288	7
HLD	83	0	1	96
HLD	83	96	0	96
HLD	83	192	7	96
STR	83	288	6
SCR	83	288	6	96	384	3
TAP	85	192	3
TAP	85	192	4
STR	85	288	3
SCL	85	288	3	96	192	0
STR	85	288	4
SCR	85	288	4	96	192	7
TAP	87	0	0
TAP	87	0	7
TAP	87	72	2
TAP	87	72	5
TAP	87	144	1
TAP	87	144	6
STR	88	0	7
SI_	88	0	7	96	48	4
STR	88	192	0
SI_	88	192	0	96	48	3
TAP	89	0	4
TAP	89	96	3
TAP	89	192	2
TAP	89	192	5
BRK	89	288	0
BRK	89	288	7

T_REC_TAP	254
T_REC_BRK	28
T_REC_XTP	0
T_REC_HLD	47
T_REC_XHO	0
T_REC_STR	27
T_REC_BST	0
T_REC_XST	0
T_REC_TTP	0
T_REC_THO	0
T_REC_SLD	27
T_REC_ALL	383
T_NUM_TAP	281
T_NUM_BRK	28
T_NUM_HLD	47
T_NUM_SLD	27
T_NUM_ALL	383
T_JUDGE_TAP	309
T_JUDGE_HLD	138
T_JUDGE_SLD	27
T_JUDGE_ALL	474
TTM_EACHPAIRS	92
TTM_SCR_TAP	140500
TTM_SCR_BRK	72800
TTM_SCR_HLD	47000
TTM_SCR_SLD	40500
TTM_SCR_ALL	300800
TTM_SCR_S	289100
TTM_SCR_SS	298000
TTM_RAT_ACV	10093

