VERSION	0.00.00	1.03.00
FES_MODE	0
BPM_DEF	150.000	150.000	150.000	150.000
MET_DEF	4	4
RESOLUTION	384
CLK_DEF	384
COMPATIBLE_CODE	MA2

BPM	0	0	150.000
MET	0	0	4	4

TAP	2	0	0
TAP	2	72	0
TAP	2	144	0
HLD	3	0	7	192
BRK	3	288	7
HLD	4	0	0	192
BRK	4	288	0
TAP	5	0	0
TAP	5	96	1
TAP	5	192	2
TAP	5	288	3
TAP	6	0	4
TAP	6	96	5
TAP	6	192	6
TAP	7	0	7
TAP	7	96	6
TAP	7	192	5
TAP	7	288	4
TAP	8	0	3
TAP	8	96	2
TAP	8	192	1
HLD	9	0	0	288
HLD	10	0	7	288
STR	11	0	0
SI_	11	0	0	96	144	4
STR	12	0	7
SI_	12	0	7	96	144	3
TAP	13	0	3
TAP	13	0	4
TAP	13	96	2
TAP	13	96	5
TAP	13	192	1
TAP	13	192	6
TAP	13	288	0
TAP	13	288	7
BRK	14	0	0
TAP	14	96	0
TAP	14	192	0
TAP	15	0	7
TAP	15	96	7
TAP	15	192	7
TAP	16	0	0
TAP	16	96	1
TAP	16	192	2
TAP	16	288	3
TAP	17	0	7
TAP	17	96	6
TAP	17	192	5
TAP	17	288	4
TAP	18	0	3
TAP	18	96	4
TAP	18	192	3
TAP	19	0	2
TAP	19	0	5
TAP	19	192	2
TAP	19	192	5
TAP	20	0	0
TAP	20	96	2
TAP	20	192	4
TAP	20	288	6
TAP	21	0	7
TAP	21	96	5
TAP	21	192	3
TAP	21	288	1
TAP	22	0	2
TAP	22	96	3
TAP	22	192	4
TAP	22	288	5
TAP	23	0	4
TAP	23	96	3
TAP	23	192	2
TAP	24	0	6
TAP	24	96	7
TAP	24	192	0
TAP	24	288	1
TAP	25	0	0
TAP	25	96	7
TAP	25	192	6
TAP	26	0	0
TAP	26	0	7
TAP	26	96	0
TAP	26	96	7
TAP	26	192	1
TAP	26	192	6
TAP	26	288	2
TAP	26	288	5
TAP	27	0	3
TAP	27	0	4
TAP	27	192	2
TAP	27	192	5
STR	27	288	3
SI_	27	288	3	96	192	0
STR	27	288	4
SI_	27	288	4	96	192	7
BRK	29	192	0
TAP	30	0	0
TAP	30	96	5
TAP	30	192	2
TAP	30	288	7
TAP	31	0	1
TAP	31	96	4
TAP	31	192	3
TAP	31	288	6
TAP	32	0	0
TAP	32	96	4
TAP	32	192	2
TAP	32	288	6
TAP	33	0	1
TAP	33	96	5
TAP	33	192	3
TAP	33	288	7
HLD	34	0	0	192
HLD	35	0	7	192
HLD	36	0	0	768
HLD	36	0	7	768
TAP	39	0	7
BRK	40	0	0
TAP	40	96	0
BRK	40	192	7
TAP	40	288	7
HLD	41	0	0	96
HLD	41	0	7	96
BRK	41	192	1
BRK	41	192	6
TAP	42	0	0
TAP	42	96	1
TAP	42	192	2
TAP	42	288	3
TAP	43	0	4
TAP	43	96	5
TAP	43	192	6
TAP	43	288	7
TAP	44	0	7
TAP	44	96	6
TAP	44	192	5
TAP	44	288	4
TAP	45	0	3
TAP	45	96	2
TAP	45	192	1
TAP	45	288	0
STR	46	0	7
SUR	46	0	7	96	192	4
STR	47	0	0
SUL	47	0	0	96	192	3
TAP	48	0	3
TAP	48	0	4
TAP	48	96	4
TAP	48	192	6
TAP	48	288	0
HLD	49	0	2	192
TAP	49	192	3
STR	49	288	3
SUR	49	288	3	96	384	6
TAP	52	0	2
TAP	53	0	3
TAP	54	0	4
TAP	55	0	5
TAP	57	0	0
TAP	57	0	1
TAP	57	192	6
TAP	57	192	7
TAP	58	0	0
TAP	58	96	7
TAP	58	192	0
TAP	58	288	7
TAP	59	0	0
TAP	59	0	7
TAP	59	96	0
TAP	59	96	7
TAP	59	192	1
TAP	59	192	6
TAP	59	288	2
TAP	59	288	5
HLD	60	0	3	288
HLD	60	0	4	288
HLD	61	0	1	1536
HLD	61	0	6	1536
TAP	66	0	7
BRK	67	0	0
TAP	67	96	2
BRK	67	192	7
TAP	67	288	5
HLD	68	0	0	96
HLD	68	0	7	96
BRK	68	192	1
BRK	68	192	6
TAP	69	0	0
TAP	69	96	1
TAP	69	96	7
TAP	69	192	0
TAP	69	288	1
TAP	69	288	7
TAP	70	0	7
TAP	70	96	0
TAP	70	96	6
TAP	70	192	7
TAP	70	288	0
TAP	70	288	6
TAP	71	0	2
TAP	71	96	1
TAP	71	96	3
TAP	71	192	2
TAP	71	288	1
TAP	71	288	3
TAP	72	0	5
TAP	72	96	4
TAP	72	96	6
TAP	72	192	5
TAP	72	288	4
TAP	72	288	6
STR	73	0	2
SI_	73	0	2	96	144	7
STR	74	0	5
SI_	74	0	5	96	144	0
TAP	75	0	0
TAP	75	96	7
TAP	75	192	1
TAP	75	288	6
TAP	76	0	0
TAP	76	0	7
BRK	76	96	1
BRK	76	96	6
TAP	77	0	2
TAP	77	0	3
TAP	77	96	2
TAP	77	96	3
TAP	77	192	4
TAP	77	192	5
TAP	77	288	4
TAP	77	288	5
TAP	78	0	2
TAP	78	0	3
TAP	78	96	4
TAP	78	96	5
TAP	78	192	2
TAP	78	192	3
TAP	78	288	4
TAP	78	288	5
TAP	79	0	0
TAP	79	0	1
TAP	79	96	0
TAP	79	96	1
TAP	79	192	6
TAP	79	192	7
TAP	79	288	6
TAP	79	288	7
TAP	80	0	0
TAP	80	0	1
TAP	80	96	6
TAP	80	96	7
TAP	80	192	0
TAP	80	192	1
TAP	80	288	6
TAP	80	288	7
TAP	81	0	0
TAP	81	0	4
TAP	81	192	2
TAP	81	192	6
TAP	82	0	0
TAP	82	0	4
TAP	82	96	1
TAP	82	96	5
TAP	82	192	2
TAP	82	192	6
TAP	83	0	3
TAP	83	0	7
TAP	83	192	1
TAP	83	192	5
TAP	84	0	3
TAP	84	0	7
TAP	84	96	3
TAP	84	96	7
TAP	84	192	2
TAP	84	192	6
TAP	84	288	1
TAP	84	288	5
TAP	85	0	0
TAP	85	0	4
TAP	85	192	1
TAP	85	192	6
TAP	85	288	1
TAP	85	288	6
BRK	86	0	0
BRK	86	0	7
TAP	87	0	7
TAP	87	72	7
TAP	87	144	7
TAP	89	48	0
TAP	89	120	0
BRK	89	192	0

T_REC_TAP	238
T_REC_BRK	17
T_REC_XTP	0
T_REC_HLD	17
T_REC_XHO	0
T_REC_STR	9
T_REC_BST	0
T_REC_XST	0
T_REC_TTP	0
T_REC_THO	0
T_REC_SLD	9
T_REC_ALL	290
T_NUM_TAP	247
T_NUM_BRK	17
T_NUM_HLD	17
T_NUM_SLD	9
T_NUM_ALL	290
T_JUDGE_TAP	264
T_JUDGE_HLD	148
T_JUDGE_SLD	9
T_JUDGE_ALL	421
TTM_EACHPAIRS	68
TTM_SCR_TAP	123500
TTM_SCR_BRK	44200
TTM_SCR_HLD	17000
TTM_SCR_SLD	13500
TTM_SCR_ALL	198200
TTM_SCR_S	190650
TTM_SCR_SS	196500
TTM_RAT_ACV	10086

