VERSION	0.00.00	1.03.00
FES_MODE	0
BPM_DEF	150.000	150.000	150.000	150.000
MET_DEF	4	4
RESOLUTION	384
CLK_DEF	384
COMPATIBLE_CODE	MA2

BPM	0	0	150.000
MET	0	0	4	4

TAP	5	0	0
TAP	5	192	0
TAP	6	0	0
TAP	6	0	1
TAP	7	0	7
TAP	7	192	7
TAP	8	0	6
TAP	8	0	7
TAP	9	0	4
TAP	9	0	5
TAP	10	0	2
TAP	10	0	3
STR	11	0	4
SI_	11	0	4	96	288	7
BRK	13	0	0
TAP	14	0	0
TAP	14	192	0
TAP	15	0	1
TAP	15	192	1
TAP	16	0	0
TAP	16	0	1
TAP	17	0	0
TAP	18	0	7
TAP	18	192	7
TAP	19	0	6
TAP	19	192	6
TAP	20	0	6
TAP	20	0	7
TAP	21	0	7
TAP	22	0	5
TAP	22	192	5
TAP	23	0	5
TAP	24	0	4
TAP	24	192	4
TAP	25	0	4
TAP	26	0	3
TAP	26	192	3
TAP	27	0	2
TAP	27	192	2
STR	28	0	2
SI_	28	0	2	96	288	6
HLD	30	0	7	192
HLD	31	0	0	192
HLD	32	0	7	192
HLD	33	0	0	192
TAP	34	0	0
TAP	34	0	7
TAP	35	0	0
TAP	35	0	7
HLD	36	0	0	768
TAP	40	0	0
TAP	40	192	0
TAP	41	0	1
BRK	41	192	0
TAP	42	0	7
TAP	42	192	7
HLD	43	0	7	192
TAP	44	0	6
TAP	44	192	6
HLD	45	0	6	192
TAP	46	0	4
TAP	46	0	5
TAP	47	0	2
TAP	47	0	3
HLD	48	0	2	384
HLD	48	0	5	384
TAP	49	192	2
STR	50	0	2
SI_	50	0	2	96	288	6
STR	52	0	7
SI_	52	0	7	96	288	4
STR	54	48	0
SI_	54	48	0	96	288	3
TAP	57	0	3
TAP	57	0	4
TAP	57	192	3
TAP	57	192	4
TAP	58	0	2
TAP	58	0	5
TAP	58	192	2
TAP	58	192	5
TAP	59	0	1
TAP	59	0	6
TAP	59	192	1
TAP	59	192	6
BRK	60	0	0
BRK	60	0	7
HLD	61	0	0	1536
HLD	63	0	7	768
TAP	67	0	0
TAP	67	192	0
TAP	68	0	1
BRK	68	192	0
TAP	69	0	7
TAP	69	192	7
HLD	70	0	7	192
TAP	71	0	6
TAP	71	192	6
HLD	72	0	6	192
TAP	73	0	4
TAP	73	192	4
TAP	73	192	5
TAP	74	0	3
TAP	74	192	2
TAP	74	192	3
TAP	75	0	3
TAP	75	192	4
BRK	76	0	3
BRK	76	0	4
TAP	77	0	2
TAP	77	192	2
HLD	78	0	2	192
TAP	79	0	1
TAP	79	192	1
HLD	80	0	1	192
TAP	81	0	0
TAP	81	192	0
TAP	81	192	1
TAP	82	0	7
TAP	82	192	6
TAP	82	192	7
TAP	83	0	0
TAP	83	192	7
HLD	84	0	1	384
HLD	84	0	6	384
TAP	85	192	2
STR	86	0	2
SI_	86	0	2	96	288	6
TAP	88	0	7
TAP	88	192	7
TAP	89	0	0
TAP	89	192	0
TAP	89	192	7

T_REC_TAP	97
T_REC_BRK	7
T_REC_XTP	0
T_REC_HLD	17
T_REC_XHO	0
T_REC_STR	6
T_REC_BST	0
T_REC_XST	0
T_REC_TTP	0
T_REC_THO	0
T_REC_SLD	6
T_REC_ALL	133
T_NUM_TAP	103
T_NUM_BRK	7
T_NUM_HLD	17
T_NUM_SLD	6
T_NUM_ALL	133
T_JUDGE_TAP	110
T_JUDGE_HLD	136
T_JUDGE_SLD	6
T_JUDGE_ALL	252
TTM_EACHPAIRS	25
TTM_SCR_TAP	51500
TTM_SCR_BRK	18200
TTM_SCR_HLD	17000
TTM_SCR_SLD	9000
TTM_SCR_ALL	95700
TTM_SCR_S	92150
TTM_SCR_SS	95000
TTM_RAT_ACV	10073

