VERSION	0.00.00	1.03.00
FES_MODE	0
BPM_DEF	169.000	169.000	169.000	169.000
MET_DEF	4	4
RESOLUTION	384
CLK_DEF	384
COMPATIBLE_CODE	MA2

BPM	0	0	169.000
MET	0	0	4	4

TAP	2	0	2
TAP	2	0	3
TAP	2	96	4
TAP	2	96	5
TAP	2	192	1
TAP	2	192	3
TAP	2	240	2
TAP	2	240	3
TAP	2	288	4
TAP	2	288	6
TAP	2	336	4
TAP	2	336	5
TAP	3	0	4
TAP	3	0	5
TAP	3	96	2
TAP	3	96	3
TAP	3	192	4
TAP	3	192	6
TAP	3	240	4
TAP	3	240	5
TAP	3	288	1
TAP	3	288	3
TAP	3	336	2
TAP	3	336	3
TAP	4	0	0
TAP	4	0	1
TAP	4	96	6
TAP	4	96	7
TAP	4	192	0
TAP	4	192	1
TAP	4	240	0
TAP	4	240	2
TAP	4	288	6
TAP	4	288	7
TAP	4	336	5
TAP	4	336	7
STR	5	0	1
SCR	5	0	1	96	48	4
TAP	5	96	6
TAP	5	144	6
TAP	5	192	4
TAP	5	192	5
TAP	5	240	7
BRK	5	288	6
BRK	5	288	7
STR	6	0	6
SI_	6	0	6	96	48	4
TAP	6	48	6
STR	6	96	0
SI_	6	96	0	96	48	2
TAP	6	144	0
STR	6	192	7
SI_	6	192	7	96	48	3
TAP	6	240	7
TAP	7	0	0
TAP	7	0	1
TAP	7	48	2
TAP	7	48	7
TAP	7	96	6
TAP	7	96	7
BRK	7	144	0
BRK	7	144	5
TAP	7	240	3
TAP	7	240	4
TAP	7	288	1
TAP	7	288	3
TAP	7	336	2
TAP	7	336	3
TAP	8	0	4
TAP	8	0	6
TAP	8	48	4
TAP	8	48	5
BRK	8	96	3
BRK	8	96	4
TAP	8	192	1
TAP	8	192	3
TAP	8	240	2
TAP	8	240	3
BRK	8	288	3
BRK	8	288	4
TAP	9	0	0
TAP	9	0	4
TAP	9	48	1
TAP	9	48	5
TAP	9	96	2
TAP	9	96	6
TAP	9	144	3
TAP	9	144	7
STR	9	192	0
SCL	9	192	0	96	48	6
STR	9	192	4
SCL	9	192	4	96	48	2
TAP	10	0	0
TAP	10	0	1
TAP	10	48	0
TAP	10	48	7
TAP	10	96	6
TAP	10	96	7
TAP	10	144	5
TAP	10	144	6
TAP	10	240	1
TAP	10	240	2
TAP	10	288	2
TAP	10	288	3
TAP	10	336	3
TAP	10	336	4
TAP	11	48	5
TAP	11	48	6
TAP	11	96	4
TAP	11	96	5
TAP	11	144	3
TAP	11	144	4
TAP	11	240	1
TAP	11	240	2
TAP	11	288	0
TAP	11	288	1
TAP	11	336	0
TAP	11	336	7
TAP	12	0	0
TAP	12	0	5
TAP	12	96	4
TAP	12	96	6
TAP	12	192	3
TAP	12	192	4
TAP	12	288	1
TAP	12	288	3
STR	13	0	2
SCL	13	0	2	96	144	5
TAP	13	0	7
TAP	13	240	0
TAP	13	288	1
TAP	13	288	7
STR	14	0	3
SCL	14	0	3	96	48	1
STR	14	0	6
SI_	14	0	6	96	48	3
STR	14	192	1
SI_	14	192	1	96	48	4
STR	14	192	4
SCR	14	192	4	96	48	6
STR	15	0	0
SCR	15	0	0	96	48	2
STR	15	0	5
SI_	15	0	5	96	48	0
STR	15	192	2
SI_	15	192	2	96	48	7
STR	15	192	7
SCL	15	192	7	96	48	5
STR	16	0	6
SCL	16	0	6	96	96	3
TAP	16	144	0
TAP	16	240	6
TAP	16	288	6
TAP	16	288	7
TAP	17	0	0
TAP	17	0	1
TAP	17	48	2
TAP	17	48	7
TAP	17	96	3
TAP	17	96	6
TAP	17	144	4
TAP	17	144	5
TAP	17	192	6
TAP	17	192	7
TAP	17	240	0
TAP	17	240	5
BRK	17	288	1
BRK	17	288	4
TAP	18	0	2
TAP	18	0	3
TAP	18	96	1
TAP	18	96	3
TAP	18	192	4
TAP	18	192	5
TAP	18	288	2
STR	18	288	5
SCL	18	288	5	96	48	2
TAP	19	96	0
TAP	19	96	1
STR	19	144	2
SCR	19	144	2	96	48	5
TAP	19	336	5
TAP	20	0	4
TAP	20	0	5
TAP	20	96	6
HLD	20	144	6	96
HLD	20	240	7	96
TAP	20	336	0
TAP	21	0	0
TAP	21	0	1
TAP	21	96	3
STR	21	144	2
SCR	21	144	2	96	48	5
TAP	21	336	6
TAP	21	336	7
TAP	22	0	6
TAP	22	0	7
TAP	22	96	0
TAP	22	96	1
TAP	22	144	0
TAP	22	144	2
TAP	22	240	6
TAP	22	240	7
TAP	22	288	5
TAP	22	288	7
TAP	23	0	3
TAP	23	0	4
BRK	23	96	0
BRK	23	96	6
BRK	23	192	1
BRK	23	192	7
TAP	23	288	6
TAP	23	336	0
STR	24	0	0
SCR	24	0	0	96	48	2
TAP	24	48	0
TAP	24	96	7
STR	24	144	7
SCL	24	144	7	96	48	5
TAP	24	192	7
TAP	24	240	1
STR	24	288	1
SCR	24	288	1	96	48	3
TAP	24	336	1
TAP	25	0	6
STR	25	48	6
SCL	25	48	6	96	48	4
TAP	25	96	6
TAP	25	192	0
TAP	25	240	0
TAP	25	240	1
TAP	25	288	0
TAP	25	288	7
TAP	25	336	6
TAP	25	336	7
STR	26	0	6
SCL	26	0	6	96	48	3
TAP	26	144	0
TAP	26	192	0
TAP	26	192	1
BRK	26	288	1
BRK	26	288	7
STR	27	0	1
SCR	27	0	1	96	48	4
TAP	27	144	7
TAP	27	192	6
TAP	27	192	7
BRK	27	288	0
BRK	27	288	6
STR	28	0	6
SCL	28	0	6	96	48	3
TAP	28	144	0
TAP	28	192	0
TAP	28	192	1
TAP	28	288	1
TAP	28	288	7
TAP	29	0	2
TAP	29	0	3
TAP	29	48	3
TAP	29	48	4
TAP	29	96	4
TAP	29	96	5
TAP	29	144	3
TAP	29	144	4
BRK	29	240	0
BRK	29	240	7
BRK	29	288	1
BRK	29	288	6
TAP	30	0	4
TAP	30	0	6
TAP	30	96	4
TAP	30	96	5
TAP	30	192	1
TAP	30	192	3
TAP	30	288	2
TAP	30	288	3
TAP	31	0	6
TAP	31	0	7
TAP	31	96	5
TAP	31	96	7
TAP	31	192	0
TAP	31	192	1
TAP	31	288	0
TAP	31	288	2
STR	32	0	6
SCL	32	0	6	96	48	3
TAP	32	96	0
TAP	32	144	0
TAP	32	240	0
TAP	32	240	6
TAP	32	288	1
TAP	32	288	7
TAP	32	336	0
TAP	32	336	2
TAP	33	48	4
TAP	33	48	5
TAP	33	144	2
TAP	33	144	3
TAP	33	240	6
TAP	33	240	7
TAP	33	288	0
TAP	33	288	7
TAP	33	336	0
TAP	33	336	1
STR	34	0	1
SCR	34	0	1	96	48	4
TAP	34	96	7
TAP	34	144	7
TAP	34	240	1
TAP	34	240	7
TAP	34	288	0
TAP	34	288	6
BRK	35	0	0
BRK	35	0	1
BRK	35	48	0
BRK	35	48	7
BRK	35	192	6
BRK	35	192	7
BRK	35	240	0
BRK	35	240	7
TAP	35	288	0
TAP	35	288	1
TAP	35	336	0
TAP	35	336	2
TAP	36	0	2
STR	36	0	3
SCR	36	0	3	96	48	5
STR	36	192	4
SCL	36	192	4	96	48	2
TAP	36	192	6
TAP	36	288	7
TAP	36	336	7
TAP	37	48	0
TAP	37	48	1
TAP	37	96	1
TAP	37	96	2
TAP	37	144	2
TAP	37	144	3
TAP	37	192	1
TAP	37	192	2
BRK	37	240	6
BRK	37	240	7
BRK	37	288	0
BRK	37	288	5
TAP	38	0	5
STR	38	0	7
SCR	38	0	7	96	48	1
TAP	38	96	4
TAP	38	144	4
STR	38	192	0
SCL	38	192	0	96	48	6
TAP	38	192	2
TAP	38	288	3
TAP	38	336	3
TAP	39	48	6
TAP	39	48	7
TAP	39	96	5
TAP	39	96	6
TAP	39	144	4
TAP	39	144	5
TAP	39	192	5
TAP	39	192	6
BRK	39	240	0
BRK	39	240	1
BRK	39	288	2
BRK	39	288	7
TAP	40	0	0
STR	40	0	1
SI_	40	0	1	96	48	3
TAP	40	96	1
STR	40	96	5
SI_	40	96	5	96	48	7
STR	40	192	3
SI_	40	192	3	96	48	5
TAP	40	192	5
TAP	40	288	3
STR	40	288	7
SI_	40	288	7	96	48	1
BRK	41	0	7
TAP	41	96	0
TAP	41	96	6
TAP	41	144	1
TAP	41	144	7
TAP	41	240	0
TAP	41	240	2
TAP	41	288	1
TAP	41	288	7
TAP	41	336	0
TAP	41	336	6
TAP	42	0	7
TAP	42	48	6
STR	42	96	5
SCR	42	96	5	96	48	7
TAP	42	144	4
TAP	42	240	0
TAP	42	288	1
STR	42	336	2
SCL	42	336	2	96	48	0
TAP	43	0	3
TAP	43	96	7
BRK	43	144	6
BRK	43	144	7
TAP	43	240	1
TAP	43	240	6
TAP	43	288	0
TAP	43	288	7
TAP	43	336	0
TAP	43	336	7
TAP	44	0	3
BRK	44	0	4
TAP	44	96	3
BRK	44	96	6
TAP	44	192	1
BRK	44	192	4
TAP	44	288	7
HLD	44	336	7	96
TAP	45	48	6
TAP	45	96	4
TAP	45	96	5
TAP	45	144	3
TAP	45	144	4
TAP	45	192	2
TAP	45	192	3
BRK	45	240	0
BRK	45	240	1
BRK	45	288	2
BRK	45	288	7
STR	46	0	7
SCL	46	0	7	96	48	5
TAP	46	48	7
STR	46	96	0
SCR	46	96	0	96	48	2
TAP	46	144	0
TAP	46	288	6
TAP	46	336	0
STR	46	336	7
SCL	46	336	7	96	96	2
TAP	47	192	0
TAP	47	192	1
TAP	47	240	6
TAP	47	240	7
TAP	47	288	0
TAP	47	288	5
STR	47	336	6
SCL	47	336	6	96	48	4
TAP	48	0	7
STR	48	96	1
SCR	48	96	1	96	48	3
TAP	48	144	0
STR	48	240	6
SCL	48	240	6	96	48	4
TAP	48	288	7
BRK	49	48	0
BRK	49	48	1
BRK	49	96	0
BRK	49	96	1
STR	49	144	2
SCL	49	144	2	96	48	0
TAP	49	192	3
STR	49	288	5
SCR	49	288	5	96	48	7
TAP	49	336	4
STR	50	48	2
SCL	50	48	2	96	48	0
TAP	50	96	3
TAP	50	240	6
TAP	50	240	7
TAP	50	288	0
TAP	50	288	5
TAP	50	336	1
TAP	50	336	4
TAP	51	0	2
TAP	51	0	3
TAP	51	48	0
TAP	51	48	1
TAP	51	96	2
TAP	51	96	7
TAP	51	144	3
TAP	51	144	6
BRK	51	192	4
BRK	51	192	5
TAP	51	288	2
TAP	51	288	3
TAP	52	0	3
TAP	52	0	6
TAP	52	48	4
TAP	52	48	5
TAP	52	96	1
TAP	52	96	4
TAP	52	144	2
TAP	52	144	3
TAP	52	192	2
TAP	52	192	3
TAP	52	288	4
TAP	52	288	5
TAP	53	0	1
TAP	53	0	4
TAP	53	48	2
TAP	53	48	3
TAP	53	96	3
TAP	53	96	6
TAP	53	144	4
TAP	53	144	5
TAP	53	192	5
TAP	53	192	7
TAP	53	288	0
TAP	53	288	2
TAP	54	0	6
TAP	54	0	7
TAP	54	48	0
TAP	54	48	5
TAP	54	96	0
TAP	54	96	1
TAP	54	144	2
TAP	54	144	7
STR	54	192	6
SCL	54	192	6	96	48	3
TAP	54	288	1
TAP	54	336	1
TAP	55	0	2
TAP	55	0	3
TAP	55	48	0
BRK	55	96	0
BRK	55	96	1
STR	55	192	1
SI_	55	192	1	96	48	3
TAP	55	240	1
STR	55	288	7
SI_	55	288	7	96	48	5
TAP	55	336	7
STR	56	0	0
SI_	56	0	0	96	48	4
TAP	56	48	0
TAP	56	192	5
TAP	56	192	7
TAP	56	240	0
TAP	56	240	6
TAP	56	288	1
TAP	56	288	7
BRK	56	336	0
BRK	56	336	2
TAP	57	96	4
TAP	57	96	6
TAP	57	144	4
TAP	57	144	5
TAP	57	192	1
TAP	57	192	3
TAP	57	240	2
TAP	57	240	3
TAP	57	288	3
TAP	57	288	4
TAP	58	0	2
TAP	58	0	3
TAP	58	96	4
TAP	58	96	5
TAP	58	192	3
TAP	58	192	7
TAP	58	240	2
TAP	58	240	6
TAP	58	288	1
TAP	58	288	5
TAP	58	336	0
TAP	58	336	4
TAP	59	0	3
TAP	59	0	7
STR	59	96	3
SCR	59	96	3	96	672	6
STR	59	96	7
SCR	59	96	7	96	672	2
BRK	59	144	3
BRK	59	144	7
TAP	61	144	2
TAP	61	156	3
TAP	61	168	4
TAP	61	180	5

T_REC_TAP	406
T_REC_BRK	60
T_REC_XTP	0
T_REC_HLD	3
T_REC_XHO	0
T_REC_STR	53
T_REC_BST	0
T_REC_XST	0
T_REC_TTP	0
T_REC_THO	0
T_REC_SLD	53
T_REC_ALL	575
T_NUM_TAP	459
T_NUM_BRK	60
T_NUM_HLD	3
T_NUM_SLD	53
T_NUM_ALL	575
T_JUDGE_TAP	519
T_JUDGE_HLD	6
T_JUDGE_SLD	53
T_JUDGE_ALL	578
TTM_EACHPAIRS	212
TTM_SCR_TAP	229500
TTM_SCR_BRK	156000
TTM_SCR_HLD	3000
TTM_SCR_SLD	79500
TTM_SCR_ALL	468000
TTM_SCR_S	448150
TTM_SCR_SS	462000
TTM_RAT_ACV	10129

