VERSION	0.00.00	1.03.00
FES_MODE	0
BPM_DEF	169.000	169.000	169.000	169.000
MET_DEF	4	4
RESOLUTION	384
CLK_DEF	384
COMPATIBLE_CODE	MA2

BPM	0	0	169.000
MET	0	0	4	4

TAP	2	0	0
TAP	2	96	2
TAP	2	192	6
TAP	2	288	4
TAP	3	0	1
TAP	3	96	3
TAP	3	192	7
TAP	3	288	5
TAP	4	0	2
TAP	4	96	4
TAP	4	192	0
TAP	4	288	6
TAP	5	0	0
TAP	5	0	7
TAP	5	144	0
TAP	5	144	7
TAP	5	240	1
TAP	5	240	6
TAP	6	96	2
TAP	6	192	3
TAP	6	288	1
TAP	7	0	5
TAP	7	96	4
TAP	7	192	6
TAP	7	288	5
TAP	8	0	2
TAP	8	96	3
TAP	8	192	4
TAP	8	192	5
TAP	8	288	4
TAP	8	288	5
TAP	9	0	2
TAP	9	48	2
TAP	9	96	5
TAP	9	144	5
BRK	9	192	0
BRK	9	288	7
TAP	10	48	0
TAP	10	96	0
TAP	10	144	1
TAP	10	240	7
TAP	10	288	7
TAP	10	336	6
TAP	11	48	2
TAP	11	96	2
TAP	11	144	3
TAP	11	240	5
TAP	11	288	5
TAP	11	336	4
TAP	12	0	3
STR	12	96	4
SI_	12	96	4	96	96	7
TAP	13	0	1
TAP	13	0	6
TAP	13	144	0
TAP	13	144	7
HLD	14	96	1	96
TAP	14	192	2
HLD	14	288	6	96
TAP	15	0	5
HLD	15	96	0	96
TAP	15	192	2
HLD	15	288	7	96
TAP	16	0	5
HLD	16	144	0	144
STR	17	0	0
SI_	17	0	0	96	48	4
STR	17	192	7
SI_	17	192	7	96	48	3
TAP	18	0	1
TAP	18	96	1
TAP	18	192	4
TAP	18	288	4
TAP	19	0	2
TAP	19	96	2
TAP	19	192	3
TAP	19	288	3
TAP	20	0	6
TAP	20	96	6
TAP	20	192	3
TAP	20	288	3
TAP	21	0	5
TAP	21	96	5
TAP	21	192	4
STR	21	288	6
SCR	21	288	6	96	240	2
TAP	23	96	0
TAP	23	96	7
TAP	23	192	0
TAP	23	192	7
TAP	23	336	6
TAP	24	0	6
TAP	24	96	5
STR	24	144	5
SCL	24	144	5	96	192	2
TAP	25	192	2
TAP	25	192	5
TAP	25	288	0
TAP	25	288	7
HLD	26	0	0	192
TAP	26	144	7
TAP	26	192	7
HLD	27	0	2	192
TAP	27	144	7
TAP	27	192	7
HLD	28	0	4	192
TAP	28	144	0
TAP	28	192	0
HLD	29	0	6	192
TAP	29	144	0
TAP	29	192	0
STR	30	0	0
SI_	30	0	0	96	48	2
STR	30	192	7
SI_	30	192	7	96	48	5
STR	31	0	1
SI_	31	0	1	96	48	3
STR	31	192	6
SI_	31	192	6	96	48	4
TAP	32	0	0
TAP	32	96	2
TAP	32	192	4
TAP	32	288	6
TAP	33	0	1
TAP	33	96	3
TAP	33	192	5
TAP	33	288	7
TAP	34	0	1
TAP	34	96	0
TAP	34	96	2
TAP	34	192	6
TAP	34	288	5
TAP	34	288	7
TAP	35	0	0
TAP	35	0	1
TAP	35	48	0
TAP	35	48	1
TAP	35	192	6
TAP	35	192	7
TAP	35	240	6
TAP	35	240	7
TAP	36	0	3
TAP	36	0	7
TAP	36	96	1
TAP	36	96	5
TAP	36	192	3
TAP	36	192	7
TAP	36	288	1
TAP	36	288	5
TAP	37	0	0
TAP	37	0	1
TAP	37	96	6
TAP	37	96	7
TAP	37	192	0
TAP	37	192	7
HLD	38	0	2	96
HLD	38	192	5	96
TAP	39	0	2
TAP	39	0	3
TAP	39	96	4
TAP	39	96	5
BRK	39	192	3
BRK	39	192	7
TAP	40	0	2
TAP	40	96	1
TAP	40	96	3
TAP	40	192	5
TAP	40	288	4
TAP	40	288	6
TAP	41	0	1
TAP	41	96	2
TAP	41	96	3
TAP	41	192	6
TAP	41	288	4
TAP	41	288	5
TAP	42	0	1
TAP	42	96	0
TAP	42	192	7
TAP	42	288	6
TAP	43	0	4
TAP	43	0	5
TAP	43	96	6
TAP	43	96	7
TAP	43	192	0
TAP	43	192	1
TAP	43	288	2
TAP	43	288	3
BRK	44	0	4
BRK	44	96	6
BRK	44	192	4
TAP	44	288	7
TAP	45	0	2
TAP	45	0	3
TAP	45	96	4
TAP	45	96	5
BRK	45	192	6
BRK	45	192	7
TAP	46	0	1
TAP	46	0	5
TAP	46	96	0
TAP	46	96	4
TAP	46	192	3
TAP	46	192	7
TAP	46	336	2
TAP	47	96	3
TAP	47	96	4
BRK	47	192	4
BRK	47	192	5
HLD	48	0	2	144
HLD	48	144	1	144
TAP	48	288	0
HLD	49	192	6	144
HLD	49	336	5	144
TAP	50	96	4
TAP	50	288	4
TAP	51	0	3
TAP	51	96	4
TAP	51	192	2
TAP	51	192	3
TAP	51	288	2
TAP	51	288	3
TAP	52	0	4
TAP	52	0	5
TAP	52	96	2
TAP	52	96	3
TAP	52	192	4
TAP	52	192	5
TAP	52	288	4
TAP	52	288	5
TAP	53	0	1
TAP	53	0	2
TAP	53	96	4
TAP	53	96	5
TAP	53	192	2
TAP	53	192	3
TAP	53	288	1
TAP	53	288	3
TAP	54	0	4
TAP	54	0	5
TAP	54	96	4
TAP	54	96	6
HLD	54	192	1	96
HLD	54	192	6	96
TAP	54	336	0
TAP	54	336	7
BRK	55	48	0
BRK	55	48	7
TAP	55	288	4
TAP	55	288	5
TAP	56	0	3
TAP	56	0	6
TAP	56	96	2
TAP	56	96	3
TAP	56	192	1
TAP	56	192	4
TAP	56	288	1
TAP	56	288	6
TAP	57	0	1
TAP	57	0	6
TAP	57	96	0
TAP	57	96	7
TAP	57	192	0
TAP	57	240	0
TAP	57	288	1
TAP	58	0	7
TAP	58	48	7
TAP	58	96	6
TAP	58	192	5
TAP	58	240	4
TAP	58	288	3
TAP	58	336	2
TAP	59	0	1
TAP	59	96	0
BRK	59	144	0
BRK	59	144	7

T_REC_TAP	225
T_REC_BRK	15
T_REC_XTP	0
T_REC_HLD	17
T_REC_XHO	0
T_REC_STR	9
T_REC_BST	0
T_REC_XST	0
T_REC_TTP	0
T_REC_THO	0
T_REC_SLD	9
T_REC_ALL	275
T_NUM_TAP	234
T_NUM_BRK	15
T_NUM_HLD	17
T_NUM_SLD	9
T_NUM_ALL	275
T_JUDGE_TAP	249
T_JUDGE_HLD	47
T_JUDGE_SLD	9
T_JUDGE_ALL	305
TTM_EACHPAIRS	66
TTM_SCR_TAP	117000
TTM_SCR_BRK	39000
TTM_SCR_HLD	17000
TTM_SCR_SLD	13500
TTM_SCR_ALL	186500
TTM_SCR_S	179450
TTM_SCR_SS	185000
TTM_RAT_ACV	10081

