VERSION	0.00.00	1.03.00
FES_MODE	0
BPM_DEF	169.000	169.000	169.000	169.000
MET_DEF	4	4
RESOLUTION	384
CLK_DEF	384
COMPATIBLE_CODE	MA2

BPM	0	0	169.000
MET	0	0	4	4

TAP	2	0	0
TAP	2	96	0
TAP	2	192	0
TAP	3	0	7
TAP	3	96	7
TAP	3	192	7
TAP	4	0	1
TAP	4	96	0
TAP	4	192	7
TAP	4	288	6
STR	5	0	5
SCL	5	0	5	96	192	2
TAP	6	0	1
TAP	6	96	1
TAP	6	192	7
TAP	7	0	6
TAP	7	96	6
TAP	7	192	0
TAP	8	0	3
TAP	8	96	3
TAP	8	192	4
TAP	8	288	4
TAP	9	0	3
TAP	9	96	4
BRK	9	192	2
BRK	9	192	5
TAP	10	0	0
TAP	10	192	1
TAP	11	0	3
TAP	11	192	4
TAP	12	0	6
TAP	12	192	7
STR	13	0	0
SI_	13	0	0	96	192	4
HLD	14	0	5	192
HLD	15	0	2	192
HLD	16	0	7	192
TAP	17	0	0
TAP	17	48	0
TAP	17	192	0
TAP	17	192	7
TAP	17	240	0
TAP	17	240	7
TAP	18	0	6
TAP	18	96	7
TAP	18	192	6
TAP	19	0	1
TAP	19	96	0
TAP	19	192	1
TAP	20	0	2
TAP	20	96	3
TAP	20	192	4
TAP	21	0	5
TAP	21	96	4
TAP	21	192	3
STR	22	0	2
SCR	22	0	2	96	288	5
TAP	23	96	6
TAP	23	192	6
STR	24	0	6
SCL	24	0	6	96	288	2
TAP	25	192	1
TAP	25	288	0
TAP	26	0	0
TAP	26	0	7
TAP	26	192	6
TAP	26	288	7
TAP	27	0	0
TAP	27	0	7
TAP	27	192	1
TAP	27	288	0
TAP	28	0	0
TAP	28	0	7
TAP	28	192	6
HLD	29	0	4	192
HLD	29	0	5	192
HLD	30	0	2	192
TAP	30	192	4
HLD	31	0	5	192
TAP	31	192	3
STR	32	0	2
SCL	32	0	2	96	192	7
TAP	33	288	5
STR	34	0	5
SCR	34	0	5	96	192	0
TAP	35	0	1
BRK	35	192	7
TAP	36	0	0
TAP	36	96	1
TAP	36	192	2
TAP	37	0	7
TAP	37	96	6
TAP	37	192	5
TAP	38	0	2
TAP	38	0	3
TAP	38	192	4
TAP	38	192	5
TAP	39	0	3
TAP	39	96	4
TAP	39	192	2
TAP	39	192	5
HLD	40	0	2	192
TAP	40	192	3
HLD	41	0	6	192
TAP	41	192	5
STR	42	0	0
SUL	42	0	0	96	192	3
BRK	43	0	7
TAP	44	0	2
TAP	44	0	4
TAP	44	96	3
TAP	44	96	5
TAP	44	192	2
TAP	44	192	4
TAP	45	0	0
TAP	45	0	6
TAP	45	96	1
TAP	45	96	7
TAP	45	192	0
TAP	45	192	6
TAP	46	0	1
TAP	46	0	3
TAP	46	192	4
TAP	46	192	6
TAP	47	0	0
TAP	47	96	7
TAP	47	192	1
TAP	47	192	6
TAP	48	0	0
TAP	48	144	0
TAP	48	288	0
TAP	49	192	7
TAP	49	336	7
TAP	50	96	7
TAP	50	192	0
TAP	50	192	7
BRK	51	0	0
BRK	51	0	7
TAP	51	192	1
TAP	51	288	0
TAP	52	0	1
TAP	52	96	1
TAP	52	192	6
TAP	52	288	7
TAP	53	0	6
TAP	53	96	6
TAP	53	192	2
TAP	53	288	3
TAP	54	0	4
TAP	54	96	5
HLD	54	192	6	144
TAP	55	48	6
TAP	55	192	0
TAP	55	288	1
TAP	56	0	7
TAP	56	96	6
HLD	56	192	0	144
TAP	56	336	7
TAP	57	192	0
TAP	57	288	1
TAP	58	0	2
TAP	58	96	3
TAP	58	96	4
TAP	58	192	5
TAP	58	288	6
TAP	59	0	7
STR	59	96	0
SCR	59	96	0	96	384	3
STR	59	96	7
SCL	59	96	7	96	384	4

T_REC_TAP	135
T_REC_BRK	6
T_REC_XTP	0
T_REC_HLD	11
T_REC_XHO	0
T_REC_STR	9
T_REC_BST	0
T_REC_XST	0
T_REC_TTP	0
T_REC_THO	0
T_REC_SLD	9
T_REC_ALL	170
T_NUM_TAP	144
T_NUM_BRK	6
T_NUM_HLD	11
T_NUM_SLD	9
T_NUM_ALL	170
T_JUDGE_TAP	150
T_JUDGE_HLD	42
T_JUDGE_SLD	9
T_JUDGE_ALL	201
TTM_EACHPAIRS	23
TTM_SCR_TAP	72000
TTM_SCR_BRK	15600
TTM_SCR_HLD	11000
TTM_SCR_SLD	13500
TTM_SCR_ALL	112100
TTM_SCR_S	108200
TTM_SCR_SS	111500
TTM_RAT_ACV	10053

