VERSION	0.00.00	1.03.00
FES_MODE	0
BPM_DEF	194.000	194.000	194.000	194.000
MET_DEF	4	4
RESOLUTION	384
CLK_DEF	384
COMPATIBLE_CODE	MA2

BPM	0	0	194.000
MET	0	0	4	4

TAP	1	0	1
TAP	1	96	2
TAP	1	144	3
TAP	1	240	5
HLD	1	336	6	240
TAP	2	192	0
TAP	3	0	7
TAP	3	96	5
TAP	3	144	4
TAP	3	240	2
HLD	3	336	3	240
TAP	4	48	6
TAP	4	96	6
TAP	4	144	7
TAP	4	192	7
BRK	4	288	7
TAP	5	0	2
TAP	5	96	7
TAP	5	144	0
TAP	5	240	5
HLD	5	336	1	240
TAP	6	192	6
TAP	6	288	6
TAP	7	0	5
TAP	7	96	0
TAP	7	144	7
TAP	7	240	2
HLD	7	336	6	240
TAP	8	48	0
TAP	8	96	0
TAP	8	144	1
TAP	8	192	1
TAP	8	288	2
HLD	8	336	2	240
TAP	9	48	4
TAP	9	96	4
TAP	9	144	3
TAP	9	192	3
BRK	9	288	4
TAP	10	0	2
TAP	10	96	2
STR	10	192	2
SCR	10	192	2	96	96	4
TAP	10	288	5
TAP	10	336	5
TAP	11	48	0
HLD	11	144	7	144
TAP	12	0	6
TAP	12	96	6
TAP	12	192	6
TAP	12	288	6
TAP	13	0	7
TAP	13	96	7
TAP	13	192	7
TAP	13	240	7
TAP	13	288	7
TAP	14	0	5
TAP	14	96	5
STR	14	192	5
SCL	14	192	5	96	96	3
TAP	14	288	2
TAP	14	336	2
TAP	15	48	7
HLD	15	144	0	144
TAP	16	0	2
TAP	16	96	2
TAP	16	192	2
TAP	16	288	2
TAP	17	0	2
TAP	17	48	5
TAP	17	96	2
TAP	17	192	2
TAP	17	192	5
TAP	17	240	2
TAP	17	288	2
TAP	17	288	5
TAP	18	0	3
TAP	18	0	5
TAP	18	96	2
TAP	18	96	5
TAP	18	192	1
TAP	18	192	5
TAP	18	288	0
TAP	18	288	5
TAP	18	336	0
TAP	19	0	6
TAP	19	48	1
TAP	19	96	6
TAP	19	144	2
TAP	19	192	6
TAP	19	240	6
TAP	19	288	6
TAP	20	0	2
TAP	20	0	5
TAP	20	96	0
TAP	20	96	5
TAP	20	144	1
TAP	20	192	5
TAP	20	240	1
TAP	20	288	5
TAP	21	0	6
TAP	21	96	6
TAP	21	192	6
TAP	21	240	6
TAP	21	288	6
TAP	22	0	1
TAP	22	0	4
TAP	22	96	1
TAP	22	96	5
TAP	22	192	1
TAP	22	192	6
TAP	22	288	1
TAP	22	288	7
TAP	22	336	7
TAP	23	0	0
TAP	23	48	6
TAP	23	96	0
TAP	23	144	5
TAP	23	192	0
TAP	23	240	0
TAP	23	288	0
TAP	24	0	1
TAP	24	0	7
TAP	24	48	7
TAP	24	96	1
TAP	24	96	6
TAP	24	144	5
TAP	24	240	2
TAP	24	240	5
TAP	24	336	2
TAP	24	336	5
TAP	25	48	6
TAP	25	48	7
TAP	25	96	6
TAP	25	96	7
TAP	25	144	6
TAP	25	144	7
TAP	25	192	6
TAP	25	192	7
BRK	25	288	1
HLD	26	0	1	192
HLD	26	0	3	192
TAP	26	240	4
TAP	26	240	6
HLD	26	336	4	240
HLD	26	336	6	240
TAP	28	0	3
TAP	28	0	5
TAP	28	96	2
TAP	28	96	4
TAP	28	192	4
TAP	28	192	6
TAP	28	288	5
TAP	28	288	7
TAP	29	0	2
TAP	29	0	4
TAP	29	96	3
TAP	29	96	5
TAP	29	192	1
TAP	29	192	3
TAP	29	288	0
TAP	29	288	2
TAP	30	0	3
TAP	30	0	5
TAP	30	96	2
TAP	30	96	4
TAP	30	192	4
TAP	30	192	6
TAP	30	288	5
TAP	30	288	7
TAP	31	0	2
TAP	31	0	4
TAP	31	48	4
TAP	31	96	3
TAP	31	144	5
TAP	31	192	1
TAP	31	240	3
TAP	31	288	2
TAP	31	336	0
TAP	32	0	1
TAP	32	0	4
TAP	32	96	3
TAP	32	96	6
TAP	32	192	1
TAP	32	192	4
TAP	32	288	3
TAP	32	288	6
TAP	33	0	2
TAP	33	0	5
TAP	33	96	0
TAP	33	96	3
TAP	33	192	2
TAP	33	192	5
TAP	33	288	0
TAP	33	288	3
TAP	34	0	1
TAP	34	0	4
TAP	34	96	3
TAP	34	96	6
TAP	34	192	1
TAP	34	192	4
TAP	34	288	3
TAP	34	288	6
TAP	35	0	2
TAP	35	0	5
TAP	35	48	2
TAP	35	96	3
TAP	35	144	0
TAP	35	192	6
TAP	35	240	3
TAP	35	288	4
TAP	35	336	1
TAP	36	0	1
TAP	36	0	5
TAP	36	96	3
TAP	36	96	7
TAP	36	192	0
TAP	36	192	4
TAP	36	288	2
TAP	36	288	6
TAP	37	0	3
TAP	37	0	7
TAP	37	96	1
TAP	37	96	5
TAP	37	192	2
TAP	37	192	6
TAP	37	288	0
TAP	37	288	4
TAP	38	0	1
TAP	38	0	5
TAP	38	96	3
TAP	38	96	7
TAP	38	192	0
TAP	38	192	4
TAP	38	288	2
TAP	38	288	6
TAP	39	0	3
TAP	39	0	7
TAP	39	48	3
TAP	39	48	7
TAP	39	96	1
TAP	39	96	5
TAP	39	144	1
TAP	39	144	5
TAP	39	192	2
TAP	39	192	6
TAP	39	240	2
TAP	39	240	6
TAP	39	288	0
TAP	39	288	4
HLD	40	0	0	240
TAP	40	240	7
HLD	40	336	7	96
TAP	41	48	0
TAP	41	96	1
TAP	41	144	2
TAP	41	240	6
TAP	41	288	5
TAP	41	336	2
TAP	42	0	2
TAP	42	48	3
TAP	42	144	1
TAP	42	240	7
TAP	42	336	5
TAP	43	48	3
TAP	43	96	2
TAP	43	144	4
TAP	43	192	1
BRK	43	288	7
TAP	44	0	0
TAP	44	0	7
TAP	44	48	2
TAP	44	96	5
TAP	44	144	1
TAP	44	192	3
TAP	44	192	4
TAP	44	240	7
TAP	44	288	0
TAP	44	336	5
TAP	45	0	3
TAP	45	0	4
TAP	45	48	1
TAP	45	96	6
TAP	45	144	2
TAP	45	192	0
TAP	45	192	7
TAP	45	240	4
TAP	45	288	3
TAP	45	336	6
TAP	46	0	2
TAP	46	0	6
TAP	46	48	3
TAP	46	96	5
TAP	46	144	4
TAP	46	192	1
TAP	46	192	5
TAP	46	240	7
TAP	46	288	0
TAP	46	336	6
TAP	47	0	1
TAP	47	0	5
TAP	47	48	0
TAP	47	96	6
TAP	47	144	7
TAP	47	192	2
TAP	47	192	6
TAP	47	240	5
TAP	47	288	3
TAP	47	336	4
TAP	48	0	6
TAP	48	0	7
TAP	48	48	1
TAP	48	96	4
TAP	48	144	0
TAP	48	192	2
TAP	48	192	3
TAP	48	240	7
TAP	48	288	6
TAP	48	336	1
TAP	49	0	2
TAP	49	0	3
TAP	49	48	5
TAP	49	96	0
TAP	49	144	4
TAP	49	192	6
TAP	49	192	7
TAP	49	240	3
TAP	49	288	2
TAP	49	336	5
TAP	50	0	6
TAP	50	0	7
TAP	50	48	4
TAP	50	96	1
TAP	50	144	5
TAP	50	192	1
TAP	50	192	6
TAP	50	240	7
TAP	50	264	0
TAP	50	288	7
TAP	50	312	0
HLD	50	336	6	96
TAP	51	48	1
TAP	51	96	1
TAP	51	144	1
TAP	51	192	0
TAP	51	192	7
TAP	51	288	0
TAP	51	288	7
HLD	51	336	1	96
TAP	52	48	6
TAP	52	96	6
TAP	52	144	6
TAP	52	192	7
BRK	52	288	3
TAP	53	0	0
TAP	53	0	7
TAP	53	48	2
TAP	53	96	5
TAP	53	144	1
TAP	53	192	3
TAP	53	192	4
TAP	53	240	7
TAP	53	288	0
TAP	53	336	5
TAP	54	0	3
TAP	54	0	4
TAP	54	48	1
TAP	54	96	6
TAP	54	144	2
TAP	54	192	0
TAP	54	192	7
TAP	54	240	4
TAP	54	264	3
TAP	54	312	3
TAP	54	336	6
TAP	55	0	2
TAP	55	0	6
TAP	55	48	3
TAP	55	96	5
TAP	55	144	4
TAP	55	192	1
TAP	55	192	5
TAP	55	240	7
TAP	55	288	0
TAP	55	336	6
TAP	56	0	1
TAP	56	0	5
TAP	56	48	0
TAP	56	96	6
TAP	56	144	7
TAP	56	192	2
TAP	56	192	6
TAP	56	240	5
TAP	56	264	3
TAP	56	312	3
TAP	56	336	4
TAP	57	0	6
TAP	57	0	7
TAP	57	48	1
TAP	57	96	4
TAP	57	144	0
TAP	57	192	2
TAP	57	192	3
TAP	57	240	7
TAP	57	288	6
TAP	57	336	1
TAP	58	0	2
TAP	58	0	3
TAP	58	48	5
TAP	58	96	0
TAP	58	144	4
TAP	58	192	6
TAP	58	192	7
TAP	58	240	3
TAP	58	264	2
TAP	58	312	2
TAP	58	336	5
TAP	59	0	6
TAP	59	0	7
TAP	59	48	4
TAP	59	96	1
TAP	59	144	5
TAP	59	192	1
TAP	59	192	6
TAP	59	240	0
TAP	59	264	7
TAP	59	288	0
TAP	59	312	7
HLD	59	336	1	96
TAP	60	48	6
TAP	60	96	6
TAP	60	144	6
TAP	60	192	0
TAP	60	192	7
TAP	60	288	0
TAP	60	288	7
HLD	60	336	6	96
TAP	61	48	1
TAP	61	96	1
TAP	61	144	1
TAP	61	192	0
TAP	61	192	7
TAP	61	288	0
TAP	61	288	7
HLD	61	336	3	96
TAP	62	48	4
TAP	62	96	2
TAP	62	96	5
TAP	62	144	1
TAP	62	144	6
TAP	62	192	0
TAP	62	192	7
TAP	62	288	0
TAP	62	288	7
TAP	63	0	1
TAP	63	0	7
TAP	63	96	0
TAP	63	96	6
TAP	63	144	3
TAP	63	192	1
TAP	63	192	7
TAP	63	240	4
STR	63	288	0
SCR	63	288	0	96	48	3
TAP	63	288	6
STR	64	0	0
SI_	64	0	0	96	48	5
STR	64	96	0
SI_	64	96	0	96	48	3
TAP	65	0	0
TAP	65	0	6
TAP	65	96	1
TAP	65	96	7
TAP	65	144	4
TAP	65	192	0
TAP	65	192	6
TAP	65	240	3
TAP	65	288	1
STR	65	288	7
SCL	65	288	7	96	48	4
STR	66	0	7
SI_	66	0	7	96	48	2
STR	66	96	7
SI_	66	96	7	96	48	4
TAP	67	0	1
TAP	67	0	7
TAP	67	96	0
TAP	67	96	6
TAP	67	144	3
TAP	67	192	1
TAP	67	192	7
TAP	67	240	4
STR	67	288	0
SI_	67	288	0	96	48	5
TAP	67	288	6
STR	68	0	0
SCR	68	0	0	96	48	3
STR	68	96	0
SI_	68	96	0	96	48	4
TAP	69	0	0
TAP	69	0	6
TAP	69	96	1
TAP	69	96	7
TAP	69	144	4
TAP	69	192	0
TAP	69	192	6
TAP	69	240	3
TAP	69	288	1
TAP	69	288	7
TAP	69	336	4
TAP	70	48	6
TAP	70	48	7
TAP	70	96	0
TAP	70	96	5
TAP	70	144	1
TAP	70	144	4
BRK	70	288	7
TAP	71	0	0
TAP	71	0	6
TAP	71	96	1
TAP	71	96	7
TAP	71	144	4
TAP	71	192	0
TAP	71	192	6
TAP	71	240	3
TAP	71	288	1
STR	71	288	7
SI_	71	288	7	96	48	2
STR	72	0	7
SCL	72	0	7	96	48	4
STR	72	96	7
SI_	72	96	7	96	48	3
TAP	73	0	1
TAP	73	0	6
TAP	73	96	0
TAP	73	96	7
TAP	73	144	3
TAP	73	192	1
TAP	73	192	6
TAP	73	240	4
STR	73	288	0
SCR	73	288	0	96	48	3
STR	73	288	7
SCL	73	288	7	96	48	4
STR	74	0	0
SI_	74	0	0	96	48	4
STR	74	0	7
SI_	74	0	7	96	48	3
STR	74	96	0
SCR	74	96	0	96	48	3
STR	74	96	7
SCL	74	96	7	96	48	4
TAP	75	0	0
TAP	75	0	1
TAP	75	144	2
TAP	75	144	7
HLD	75	288	3	288
HLD	75	288	6	288
TAP	76	288	4
TAP	76	288	5
HLD	77	0	1	240
TAP	77	240	0
TAP	77	288	7
TAP	77	336	6
BRK	78	192	1
BRK	78	192	6
TAP	79	0	4
TAP	79	96	3
TAP	79	144	2
TAP	79	240	2
TAP	79	336	5
TAP	80	48	5
STR	80	96	6
SUR	80	96	6	96	96	5
TAP	80	144	6
TAP	81	0	0
TAP	81	48	1
TAP	81	96	2
TAP	81	144	3
TAP	81	240	3
TAP	81	336	4
TAP	82	48	5
STR	82	96	5
SUR	82	96	5	96	96	2
TAP	82	144	5
TAP	83	0	3
TAP	83	96	4
TAP	83	144	5
TAP	83	240	5
TAP	83	336	2
TAP	84	48	2
STR	84	96	1
SUL	84	96	1	96	96	2
TAP	84	144	1
TAP	85	0	0
TAP	85	48	1
TAP	85	96	2
TAP	85	144	3
TAP	85	240	3
TAP	85	336	4
TAP	86	48	2
TAP	86	48	5
TAP	86	96	2
TAP	86	96	5
TAP	86	144	3
TAP	86	144	4
TAP	86	192	3
TAP	86	192	4
TAP	86	336	3
TAP	86	336	4
TAP	87	48	1
TAP	87	48	6
TAP	87	96	1
TAP	87	96	6
TAP	87	144	0
TAP	87	144	7
TAP	87	192	0
TAP	87	192	7
BRK	87	288	1
TAP	88	0	0
TAP	88	0	7
TAP	88	48	4
TAP	88	96	2
TAP	88	144	1
TAP	88	192	3
TAP	88	192	4
TAP	88	240	2
TAP	88	288	6
TAP	88	312	6
TAP	88	336	1
TAP	89	0	0
TAP	89	0	7
TAP	89	48	3
TAP	89	96	5
TAP	89	144	6
TAP	89	192	3
TAP	89	192	4
TAP	89	240	5
TAP	89	264	1
TAP	89	312	1
TAP	89	336	6
TAP	90	0	2
TAP	90	0	5
TAP	90	48	4
TAP	90	96	2
TAP	90	144	1
TAP	90	192	2
TAP	90	192	5
TAP	90	240	3
TAP	90	288	6
TAP	90	312	6
TAP	90	336	3
TAP	91	0	2
TAP	91	0	5
TAP	91	48	6
TAP	91	96	2
TAP	91	144	3
TAP	91	192	2
TAP	91	192	5
TAP	91	240	1
TAP	91	264	5
TAP	91	312	5
TAP	91	336	2
TAP	92	0	0
TAP	92	0	7
TAP	92	48	4
TAP	92	96	2
TAP	92	120	2
TAP	92	144	6
TAP	92	192	3
TAP	92	192	4
TAP	92	240	2
TAP	92	288	6
TAP	92	312	6
TAP	92	336	3
TAP	93	0	0
TAP	93	0	7
TAP	93	48	3
TAP	93	96	5
TAP	93	120	5
TAP	93	144	2
TAP	93	192	3
TAP	93	192	4
TAP	93	240	5
TAP	93	264	1
TAP	93	312	1
TAP	93	336	5
TAP	94	0	0
TAP	94	0	7
TAP	94	48	4
TAP	94	96	2
TAP	94	120	2
TAP	94	144	5
TAP	94	192	3
TAP	94	192	4
TAP	94	240	1
TAP	94	264	6
TAP	94	288	0
TAP	94	312	7
TAP	94	336	0
TAP	94	360	7
TAP	95	48	3
TAP	95	48	6
TAP	95	96	2
TAP	95	96	5
TAP	95	144	1
TAP	95	144	4
TAP	95	192	0
TAP	95	192	3
TAP	95	288	2
TAP	95	288	5
TAP	95	336	1
TAP	95	336	6
TAP	96	48	0
TAP	96	48	3
TAP	96	96	1
TAP	96	96	4
TAP	96	144	2
TAP	96	144	5
TAP	96	192	3
TAP	96	192	6
TAP	96	288	0
TAP	96	288	7
TAP	96	336	2
TAP	96	336	5
TAP	97	48	5
TAP	97	48	6
TAP	97	96	4
TAP	97	96	7
TAP	97	144	0
TAP	97	144	3
TAP	97	192	1
TAP	97	192	2
STR	97	288	5
SI_	97	288	5	96	288	2
STR	97	288	6
SI_	97	288	6	96	288	1
BRK	99	0	0
BRK	99	0	7
BRK	99	48	0
BRK	99	48	7

T_REC_TAP	657
T_REC_BRK	13
T_REC_XTP	0
T_REC_HLD	21
T_REC_XHO	0
T_REC_STR	25
T_REC_BST	0
T_REC_XST	0
T_REC_TTP	0
T_REC_THO	0
T_REC_SLD	25
T_REC_ALL	741
T_NUM_TAP	682
T_NUM_BRK	13
T_NUM_HLD	21
T_NUM_SLD	25
T_NUM_ALL	741
T_JUDGE_TAP	695
T_JUDGE_HLD	83
T_JUDGE_SLD	25
T_JUDGE_ALL	803
TTM_EACHPAIRS	182
TTM_SCR_TAP	341000
TTM_SCR_BRK	33800
TTM_SCR_HLD	21000
TTM_SCR_SLD	37500
TTM_SCR_ALL	433300
TTM_SCR_S	419050
TTM_SCR_SS	432000
TTM_RAT_ACV	10030

