VERSION	0.00.00	1.03.00
FES_MODE	0
BPM_DEF	194.000	194.000	194.000	194.000
MET_DEF	4	4
RESOLUTION	384
CLK_DEF	384
COMPATIBLE_CODE	MA2

BPM	0	0	194.000
MET	0	0	4	4

TAP	1	0	7
TAP	1	96	5
TAP	1	144	4
TAP	1	240	2
HLD	1	336	3	240
TAP	2	192	7
TAP	3	0	1
TAP	3	96	2
TAP	3	144	3
TAP	3	240	5
HLD	3	336	6	240
TAP	4	96	0
TAP	4	192	0
BRK	4	288	0
TAP	5	0	2
TAP	5	96	7
TAP	5	144	0
TAP	5	240	5
HLD	5	336	1	240
TAP	6	192	6
TAP	6	288	6
TAP	7	0	5
TAP	7	96	0
TAP	7	144	7
TAP	7	240	2
HLD	7	336	6	240
TAP	8	96	0
TAP	8	192	0
TAP	8	288	2
HLD	8	336	2	240
TAP	9	96	4
TAP	9	192	4
BRK	9	288	4
TAP	10	0	2
TAP	10	96	1
STR	10	192	1
SCR	10	192	1	96	96	3
TAP	10	288	7
TAP	10	336	7
TAP	11	48	0
TAP	11	144	7
STR	12	0	5
SCL	12	0	5	96	192	2
TAP	12	96	6
TAP	12	192	7
TAP	12	288	0
STR	13	0	1
SCL	13	0	1	96	192	6
TAP	13	96	2
TAP	13	192	3
TAP	13	288	4
TAP	14	0	5
TAP	14	96	6
STR	14	192	6
SCL	14	192	6	96	96	4
TAP	14	288	0
TAP	14	336	0
TAP	15	48	7
TAP	15	144	0
TAP	16	0	7
STR	16	96	1
SI_	16	96	1	96	48	5
TAP	16	96	5
TAP	16	192	3
TAP	16	336	2
TAP	17	48	6
TAP	17	96	6
TAP	17	144	7
TAP	17	192	7
TAP	17	288	0
HLD	18	0	6	192
TAP	18	96	7
TAP	18	192	0
TAP	18	288	2
HLD	18	336	2	192
TAP	19	48	3
TAP	19	144	4
TAP	20	0	2
TAP	20	0	3
TAP	20	96	0
TAP	20	144	7
TAP	20	240	4
TAP	20	240	5
HLD	20	336	2	144
TAP	21	96	5
TAP	21	192	5
TAP	21	240	4
TAP	21	288	3
HLD	22	0	1	192
TAP	22	96	0
TAP	22	192	7
TAP	22	288	5
HLD	22	336	5	192
TAP	23	48	4
TAP	23	144	3
TAP	24	0	6
TAP	24	48	7
TAP	24	96	0
TAP	24	144	1
STR	24	240	6
SI_	24	240	6	96	48	3
TAP	25	48	1
TAP	25	96	0
TAP	25	144	7
TAP	25	192	6
TAP	25	288	5
TAP	25	288	7
HLD	26	0	5	192
HLD	26	0	7	192
TAP	26	240	5
TAP	26	240	7
HLD	26	336	1	240
HLD	26	336	3	240
TAP	28	0	4
TAP	28	96	4
TAP	28	96	5
TAP	28	192	4
TAP	28	288	4
TAP	28	288	5
TAP	29	0	4
TAP	29	96	2
TAP	29	96	3
TAP	29	192	4
TAP	29	192	5
TAP	29	288	2
TAP	29	288	3
TAP	30	0	4
TAP	30	96	4
TAP	30	96	6
TAP	30	192	3
TAP	30	288	1
TAP	30	288	3
TAP	31	0	2
TAP	31	0	3
TAP	31	96	0
TAP	31	96	1
TAP	31	192	6
TAP	31	192	7
BRK	31	288	4
BRK	31	288	5
TAP	32	0	3
TAP	32	96	2
TAP	32	96	3
TAP	32	192	3
TAP	32	288	1
TAP	32	288	3
TAP	33	0	3
TAP	33	96	4
TAP	33	96	5
TAP	33	192	2
TAP	33	192	3
TAP	33	288	4
TAP	33	288	5
TAP	34	0	6
TAP	34	0	7
TAP	34	96	0
TAP	34	96	1
TAP	34	192	2
TAP	34	192	3
TAP	34	288	4
TAP	34	288	5
TAP	35	0	2
TAP	35	0	3
TAP	35	96	0
TAP	35	96	1
TAP	35	192	6
TAP	35	192	7
BRK	35	288	4
BRK	35	288	5
TAP	36	0	2
TAP	36	0	3
TAP	36	96	1
TAP	36	96	3
TAP	36	192	4
TAP	36	192	5
TAP	36	288	4
TAP	36	288	6
TAP	37	0	1
TAP	37	0	2
TAP	37	96	1
TAP	37	96	3
TAP	37	192	5
TAP	37	192	6
TAP	37	288	4
TAP	37	288	6
TAP	38	0	6
TAP	38	0	7
TAP	38	96	0
TAP	38	96	1
TAP	38	192	2
TAP	38	192	3
TAP	38	288	4
TAP	38	288	5
TAP	39	0	2
TAP	39	0	3
TAP	39	96	0
TAP	39	96	1
TAP	39	192	6
TAP	39	192	7
TAP	39	288	4
TAP	39	288	5
HLD	40	0	7	240
TAP	40	240	6
TAP	40	336	6
TAP	41	48	0
TAP	41	96	0
TAP	41	144	1
TAP	41	240	7
TAP	41	288	7
TAP	41	336	6
TAP	42	0	2
TAP	42	48	2
TAP	42	144	3
TAP	42	240	4
TAP	42	336	5
TAP	43	48	3
TAP	43	96	4
TAP	43	144	2
BRK	43	192	5
HLD	44	0	1	144
TAP	44	96	0
TAP	44	144	0
TAP	44	240	7
HLD	44	336	6	240
TAP	45	96	5
TAP	45	192	5
STR	46	0	1
SUR	46	0	1	96	192	4
HLD	46	336	5	336
TAP	47	96	4
TAP	47	192	3
TAP	47	288	2
HLD	48	0	2	240
TAP	48	144	3
TAP	48	240	3
HLD	48	336	5	240
TAP	49	96	4
TAP	49	192	4
STR	50	0	6
SUL	50	0	6	96	192	3
HLD	50	336	1	96
TAP	51	96	1
TAP	51	192	0
TAP	51	192	1
HLD	51	336	6	96
TAP	52	96	6
TAP	52	192	6
TAP	52	192	7
TAP	52	288	1
TAP	52	288	6
TAP	53	0	0
TAP	53	0	1
TAP	53	96	0
TAP	53	96	1
TAP	53	192	6
TAP	53	192	7
TAP	53	288	6
TAP	53	288	7
TAP	54	0	0
TAP	54	0	1
TAP	54	96	6
TAP	54	96	7
TAP	54	192	3
TAP	54	192	4
TAP	54	288	1
TAP	54	288	6
TAP	55	0	2
TAP	55	0	3
TAP	55	96	1
TAP	55	96	2
TAP	55	192	4
TAP	55	192	5
TAP	55	288	0
TAP	55	288	1
STR	55	336	0
SI_	55	336	0	96	96	4
TAP	55	336	1
TAP	56	192	2
STR	56	192	6
SI_	56	192	6	96	48	2
TAP	57	0	0
TAP	57	96	1
TAP	57	96	2
TAP	57	192	7
TAP	57	288	5
TAP	57	288	6
TAP	58	0	0
TAP	58	0	4
TAP	58	96	1
TAP	58	96	5
TAP	58	192	2
TAP	58	192	6
TAP	58	288	3
TAP	58	288	7
TAP	59	0	4
TAP	59	0	5
TAP	59	96	1
TAP	59	96	2
TAP	59	192	3
TAP	59	192	4
TAP	59	288	2
TAP	59	288	3
TAP	59	336	2
TAP	59	336	3
TAP	60	48	1
TAP	60	96	1
TAP	60	144	6
TAP	60	192	6
TAP	60	288	4
TAP	60	288	5
TAP	60	336	4
TAP	60	336	5
TAP	61	48	6
TAP	61	96	6
TAP	61	144	1
TAP	61	192	1
TAP	61	288	2
TAP	61	288	3
TAP	61	336	2
TAP	61	336	3
TAP	62	48	0
TAP	62	96	7
TAP	62	144	0
TAP	62	192	7
TAP	62	288	0
TAP	62	288	7
TAP	63	0	0
TAP	63	96	7
TAP	63	144	0
TAP	63	192	7
TAP	63	240	0
TAP	63	288	7
TAP	63	336	0
HLD	64	0	6	96
TAP	64	96	7
TAP	64	192	0
TAP	64	192	5
TAP	65	0	1
TAP	65	96	1
TAP	65	144	0
TAP	65	192	1
TAP	65	240	0
TAP	65	288	1
TAP	65	336	0
HLD	66	0	2	96
TAP	66	96	3
TAP	66	192	1
TAP	66	192	4
TAP	67	0	6
TAP	67	96	6
TAP	67	144	7
TAP	67	192	6
TAP	67	240	7
TAP	67	288	6
TAP	67	336	7
HLD	68	0	5	96
TAP	68	96	4
TAP	68	192	3
TAP	68	192	6
TAP	69	0	1
TAP	69	96	3
TAP	69	144	2
TAP	69	192	3
TAP	69	240	2
TAP	69	288	3
TAP	69	336	2
TAP	70	48	5
TAP	70	96	5
TAP	70	144	5
TAP	70	240	4
TAP	70	288	4
BRK	71	0	6
TAP	71	96	4
TAP	71	144	5
TAP	71	192	4
TAP	71	240	5
TAP	71	288	4
TAP	71	336	5
HLD	72	0	3	96
TAP	72	96	7
TAP	72	192	1
TAP	72	192	5
TAP	73	0	6
TAP	73	96	0
TAP	73	144	7
TAP	73	192	1
TAP	73	240	6
TAP	73	288	0
TAP	73	336	7
HLD	74	0	0	96
TAP	74	96	4
TAP	74	192	2
TAP	74	192	6
TAP	75	0	0
TAP	75	0	1
TAP	75	144	2
TAP	75	144	7
HLD	75	288	3	288
HLD	75	288	6	288
TAP	76	288	4
TAP	76	288	5
HLD	77	0	1	240
TAP	77	240	0
TAP	77	288	7
TAP	77	336	6
BRK	78	192	0
BRK	78	192	7
HLD	79	0	1	240
STR	79	240	0
SCL	79	240	0	96	240	5
HLD	81	0	2	240
STR	81	240	3
SCR	81	240	3	96	240	1
HLD	83	0	6	240
STR	83	240	7
SCR	83	240	7	96	240	2
HLD	85	0	5	240
STR	85	240	4
SCL	85	240	4	96	240	6
HLD	86	336	7	240
BRK	87	192	0
BRK	87	288	0
TAP	88	0	2
TAP	88	0	4
TAP	88	96	0
TAP	88	96	6
TAP	88	192	2
TAP	88	192	3
TAP	88	288	4
TAP	88	288	5
TAP	89	0	1
TAP	89	0	2
TAP	89	96	4
TAP	89	96	6
TAP	89	192	0
TAP	89	192	2
TAP	89	288	1
TAP	89	288	6
TAP	90	0	0
TAP	90	0	4
TAP	90	96	2
TAP	90	96	5
TAP	90	192	4
TAP	90	192	7
TAP	90	288	0
TAP	90	288	6
HLD	90	336	0	336
HLD	90	336	6	144
HLD	91	192	2	96
TAP	92	0	0
TAP	92	0	1
TAP	92	96	0
TAP	92	96	1
TAP	92	192	4
TAP	92	192	5
TAP	92	288	0
TAP	92	288	1
TAP	93	0	2
TAP	93	0	7
TAP	93	96	6
TAP	93	96	7
TAP	93	192	0
TAP	93	192	5
TAP	93	288	1
TAP	93	288	6
TAP	94	0	6
TAP	94	0	7
TAP	94	96	6
TAP	94	96	7
TAP	94	192	2
TAP	94	192	3
TAP	94	240	2
TAP	94	240	3
TAP	94	336	4
TAP	94	336	5
TAP	95	48	4
TAP	95	96	4
TAP	95	144	1
TAP	95	192	1
TAP	95	288	6
TAP	95	288	7
TAP	95	336	6
TAP	95	336	7
TAP	96	48	5
TAP	96	96	0
TAP	96	144	5
TAP	96	192	0
TAP	96	288	0
TAP	96	288	1
TAP	96	336	0
TAP	96	336	1
TAP	97	48	2
TAP	97	96	7
TAP	97	144	2
TAP	97	192	7
STR	97	288	4
SI_	97	288	4	96	288	1
STR	97	288	5
SI_	97	288	5	96	288	0
BRK	99	0	7
BRK	99	48	7

T_REC_TAP	417
T_REC_BRK	14
T_REC_XTP	0
T_REC_HLD	38
T_REC_XHO	0
T_REC_STR	16
T_REC_BST	0
T_REC_XST	0
T_REC_TTP	0
T_REC_THO	0
T_REC_SLD	16
T_REC_ALL	501
T_NUM_TAP	433
T_NUM_BRK	14
T_NUM_HLD	38
T_NUM_SLD	16
T_NUM_ALL	501
T_JUDGE_TAP	447
T_JUDGE_HLD	160
T_JUDGE_SLD	16
T_JUDGE_ALL	623
TTM_EACHPAIRS	121
TTM_SCR_TAP	216500
TTM_SCR_BRK	36400
TTM_SCR_HLD	38000
TTM_SCR_SLD	24000
TTM_SCR_ALL	314900
TTM_SCR_S	304100
TTM_SCR_SS	313500
TTM_RAT_ACV	10044

