VERSION	0.00.00	1.03.00
FES_MODE	0
BPM_DEF	194.000	194.000	194.000	194.000
MET_DEF	4	4
RESOLUTION	384
CLK_DEF	384
COMPATIBLE_CODE	MA2

BPM	0	0	194.000
MET	0	0	4	4

STR	1	0	0
SI_	1	0	0	96	144	3
HLD	2	0	7	192
STR	3	0	7
SI_	3	0	7	96	144	4
HLD	4	0	0	192
STR	5	0	1
SI_	5	0	1	96	144	5
HLD	6	0	6	192
STR	7	0	6
SI_	7	0	6	96	144	2
TAP	8	0	1
TAP	8	96	1
TAP	8	192	1
TAP	9	0	0
TAP	9	96	0
TAP	9	192	0
BRK	9	288	0
TAP	10	0	7
TAP	10	96	7
TAP	10	192	7
TAP	10	288	0
TAP	10	288	7
TAP	11	0	6
TAP	11	96	6
TAP	11	192	4
TAP	11	192	5
TAP	12	0	3
TAP	12	96	3
TAP	12	192	4
TAP	12	288	4
TAP	13	0	5
TAP	13	96	5
TAP	13	192	6
TAP	13	192	7
TAP	14	0	0
TAP	14	96	0
TAP	14	192	0
TAP	14	288	0
TAP	14	288	7
TAP	15	0	1
TAP	15	96	1
TAP	15	192	2
TAP	15	192	3
TAP	16	0	6
TAP	16	96	6
TAP	16	192	5
TAP	16	288	5
TAP	17	0	3
TAP	17	0	4
TAP	17	96	2
TAP	17	96	3
TAP	17	192	3
TAP	17	192	4
TAP	18	0	3
TAP	18	96	2
TAP	18	192	1
TAP	18	288	0
TAP	18	288	7
TAP	19	0	6
TAP	19	96	5
TAP	19	192	3
TAP	19	192	4
TAP	20	0	3
TAP	20	96	4
TAP	20	192	5
TAP	20	288	6
TAP	21	0	5
TAP	21	96	4
TAP	21	192	2
TAP	21	192	3
TAP	22	0	4
TAP	22	96	5
TAP	22	192	6
TAP	22	288	0
TAP	22	288	7
TAP	23	0	1
TAP	23	96	2
TAP	23	192	3
TAP	23	192	4
TAP	24	0	4
TAP	24	96	3
TAP	24	192	2
TAP	24	288	1
TAP	25	0	2
TAP	25	0	3
TAP	25	96	3
TAP	25	96	4
TAP	25	192	4
TAP	25	192	5
HLD	26	0	7	672
HLD	26	336	0	336
TAP	28	96	0
TAP	28	288	0
TAP	28	288	1
TAP	29	96	1
TAP	29	288	1
TAP	29	288	2
TAP	30	96	2
TAP	30	288	2
TAP	30	288	3
TAP	31	96	3
TAP	31	288	3
TAP	31	288	4
TAP	32	96	4
TAP	32	288	4
TAP	32	288	5
TAP	33	96	5
TAP	33	288	5
TAP	33	288	6
STR	34	0	6
SI_	34	0	6	96	144	1
TAP	36	96	7
TAP	36	288	6
TAP	36	288	7
TAP	37	96	6
TAP	37	288	5
TAP	37	288	6
TAP	38	96	5
TAP	38	288	4
TAP	38	288	5
TAP	39	96	4
TAP	39	288	3
TAP	39	288	4
HLD	40	0	3	576
HLD	40	336	4	240
HLD	42	0	0	480
HLD	42	336	7	144
BRK	43	192	0
BRK	43	192	7
TAP	44	0	0
TAP	44	96	7
TAP	44	192	0
TAP	44	288	0
TAP	44	288	7
TAP	45	0	1
TAP	45	96	2
TAP	45	192	3
TAP	45	192	4
STR	46	0	7
SI_	46	0	7	96	144	3
TAP	47	0	2
TAP	47	96	3
TAP	47	192	2
TAP	47	192	3
TAP	48	0	7
TAP	48	96	0
TAP	48	192	7
TAP	48	288	0
TAP	48	288	7
TAP	49	0	6
TAP	49	96	5
TAP	49	192	3
TAP	49	192	4
STR	50	0	0
SI_	50	0	0	96	144	4
TAP	51	0	5
TAP	51	96	4
TAP	51	192	4
TAP	51	192	5
TAP	52	0	1
TAP	52	96	0
BRK	52	192	0
BRK	52	192	1
TAP	53	0	0
TAP	53	96	7
TAP	53	192	0
TAP	53	288	1
TAP	53	288	6
TAP	54	0	3
TAP	54	96	4
TAP	54	192	2
TAP	54	192	5
STR	55	0	1
SI_	55	0	1	96	144	3
STR	55	0	7
SI_	55	0	7	96	144	5
TAP	56	0	3
TAP	56	96	4
TAP	56	192	3
TAP	56	192	4
TAP	57	0	7
TAP	57	96	0
TAP	57	192	7
TAP	57	288	1
TAP	57	288	6
TAP	58	0	4
TAP	58	96	3
TAP	58	192	2
TAP	58	192	5
STR	59	0	0
SI_	59	0	0	96	144	2
STR	59	0	6
SI_	59	0	6	96	144	4
TAP	60	0	2
TAP	60	96	3
TAP	60	192	2
TAP	60	192	4
TAP	61	0	5
TAP	61	96	4
TAP	61	192	3
TAP	61	192	5
TAP	62	0	0
TAP	62	96	7
BRK	62	192	1
BRK	62	192	6
TAP	63	0	3
TAP	63	96	3
TAP	63	192	4
TAP	63	288	4
TAP	64	0	3
TAP	64	0	5
TAP	64	96	2
TAP	64	96	4
TAP	64	192	3
TAP	64	192	5
TAP	65	0	7
TAP	65	96	7
TAP	65	192	0
TAP	65	288	0
TAP	66	0	1
TAP	66	0	7
TAP	66	96	0
TAP	66	96	6
TAP	66	192	1
TAP	66	192	7
TAP	67	0	1
TAP	67	96	1
TAP	67	192	6
TAP	67	288	6
TAP	68	0	1
TAP	68	0	5
TAP	68	96	2
TAP	68	96	6
TAP	68	192	1
TAP	68	192	5
TAP	69	0	5
TAP	69	96	5
TAP	69	192	2
TAP	69	288	2
TAP	70	0	1
TAP	70	0	5
TAP	70	96	2
TAP	70	96	6
TAP	70	192	1
TAP	70	192	5
TAP	71	0	3
TAP	71	96	4
TAP	71	192	3
TAP	71	288	4
TAP	72	0	2
TAP	72	0	3
TAP	72	96	4
TAP	72	96	5
TAP	72	192	2
TAP	72	192	3
TAP	73	0	7
TAP	73	96	0
TAP	73	192	7
TAP	73	288	0
TAP	74	0	6
TAP	74	0	7
TAP	74	96	0
TAP	74	96	1
TAP	74	192	6
TAP	74	192	7
STR	75	0	1
SI_	75	0	1	96	144	5
TAP	75	288	6
HLD	77	0	0	240
TAP	77	240	7
TAP	77	288	7
TAP	77	336	7
TAP	79	0	0
TAP	79	0	1
TAP	79	336	0
TAP	79	336	1
TAP	81	0	2
TAP	81	0	3
TAP	81	336	2
TAP	81	336	3
TAP	82	192	2
TAP	82	192	3
TAP	83	0	4
TAP	83	0	5
TAP	83	336	4
TAP	83	336	5
TAP	85	0	6
TAP	85	0	7
TAP	85	336	6
TAP	85	336	7
TAP	86	192	6
TAP	86	192	7
TAP	86	336	0
TAP	86	336	7
BRK	87	192	1
BRK	87	192	6
TAP	88	0	2
TAP	88	96	3
TAP	88	192	4
TAP	88	288	4
TAP	88	288	5
TAP	89	0	1
TAP	89	96	0
TAP	89	192	6
TAP	89	192	7
STR	90	0	5
SCR	90	0	5	96	144	0
TAP	91	0	2
TAP	91	96	3
TAP	91	192	1
TAP	91	192	4
TAP	92	0	5
TAP	92	96	4
TAP	92	192	3
TAP	92	288	2
TAP	92	288	3
TAP	93	0	6
TAP	93	96	7
TAP	93	192	0
TAP	93	192	1
STR	94	0	2
SCL	94	0	2	96	144	7
TAP	95	0	5
TAP	95	96	4
TAP	95	192	3
TAP	95	192	6
TAP	96	0	1
TAP	96	96	0
TAP	96	192	2
TAP	96	192	7
TAP	97	0	6
TAP	97	0	7
TAP	97	96	4
TAP	97	96	5
TAP	97	192	2
TAP	97	192	3
TAP	97	288	0
TAP	97	288	1
HLD	98	0	7	384
TAP	99	0	0
TAP	99	48	0

T_REC_TAP	294
T_REC_BRK	9
T_REC_XTP	0
T_REC_HLD	11
T_REC_XHO	0
T_REC_STR	14
T_REC_BST	0
T_REC_XST	0
T_REC_TTP	0
T_REC_THO	0
T_REC_SLD	14
T_REC_ALL	342
T_NUM_TAP	308
T_NUM_BRK	9
T_NUM_HLD	11
T_NUM_SLD	14
T_NUM_ALL	342
T_JUDGE_TAP	317
T_JUDGE_HLD	76
T_JUDGE_SLD	14
T_JUDGE_ALL	407
TTM_EACHPAIRS	85
TTM_SCR_TAP	154000
TTM_SCR_BRK	23400
TTM_SCR_HLD	11000
TTM_SCR_SLD	21000
TTM_SCR_ALL	209400
TTM_SCR_S	202250
TTM_SCR_SS	208500
TTM_RAT_ACV	10043

