VERSION	0.00.00	1.03.00
FES_MODE	0
BPM_DEF	194.000	194.000	194.000	194.000
MET_DEF	4	4
RESOLUTION	384
CLK_DEF	384
COMPATIBLE_CODE	MA2

BPM	0	0	194.000
MET	0	0	4	4

TAP	5	0	3
TAP	6	0	2
TAP	7	0	1
TAP	8	0	0
TAP	8	192	0
BRK	9	0	0
TAP	10	192	1
TAP	11	192	1
TAP	12	192	2
TAP	13	192	2
TAP	14	192	3
TAP	15	192	3
TAP	16	192	4
TAP	17	0	5
TAP	17	96	5
TAP	17	192	5
TAP	18	0	6
TAP	18	96	6
TAP	19	0	6
TAP	19	96	6
TAP	20	0	7
TAP	20	96	7
TAP	21	0	7
TAP	21	96	7
TAP	22	0	0
TAP	22	96	0
TAP	23	0	0
TAP	23	96	0
TAP	24	0	1
TAP	24	96	1
TAP	25	0	1
TAP	25	96	1
TAP	25	192	1
HLD	26	0	0	384
TAP	28	0	7
TAP	28	96	7
TAP	28	288	7
TAP	29	96	7
TAP	29	288	7
TAP	30	96	6
TAP	30	288	6
TAP	31	96	6
TAP	31	288	6
TAP	32	96	5
TAP	32	288	5
TAP	33	96	5
TAP	33	288	5
STR	34	0	5
SI_	34	0	5	96	288	1
TAP	36	0	0
TAP	36	96	0
TAP	36	288	0
TAP	37	96	0
TAP	37	288	0
TAP	38	96	7
TAP	38	288	7
TAP	39	96	7
TAP	39	288	7
HLD	40	0	7	336
HLD	42	0	0	336
TAP	44	0	0
TAP	44	192	0
TAP	45	0	1
TAP	45	192	1
STR	46	0	0
SI_	46	0	0	96	288	3
TAP	48	0	7
TAP	48	192	7
TAP	49	0	6
TAP	49	192	6
STR	50	0	7
SI_	50	0	7	96	288	4
TAP	52	0	0
TAP	52	192	0
TAP	53	0	7
TAP	53	96	7
TAP	53	192	7
TAP	54	0	0
TAP	54	96	0
TAP	54	192	0
STR	55	0	1
SI_	55	0	1	96	288	5
TAP	57	0	0
TAP	57	96	0
TAP	57	192	0
TAP	58	0	7
TAP	58	96	7
TAP	58	192	7
STR	59	0	6
SI_	59	0	6	96	288	2
TAP	61	0	7
TAP	61	192	0
TAP	62	0	0
TAP	62	0	7
BRK	62	192	0
BRK	62	192	7
TAP	63	0	1
TAP	63	192	1
TAP	64	0	2
TAP	64	96	2
TAP	64	192	2
TAP	65	0	3
TAP	65	192	3
TAP	66	0	4
TAP	66	96	4
TAP	66	192	4
TAP	67	0	5
TAP	67	192	5
TAP	68	0	6
TAP	68	96	6
TAP	68	192	6
TAP	69	0	7
TAP	69	192	7
TAP	70	0	0
TAP	70	96	0
TAP	70	192	0
TAP	71	0	7
TAP	71	192	7
TAP	72	0	6
TAP	72	0	7
TAP	72	96	6
TAP	72	96	7
TAP	72	192	6
TAP	72	192	7
TAP	73	0	0
TAP	73	192	0
TAP	74	0	0
TAP	74	0	1
TAP	74	96	0
TAP	74	96	1
TAP	74	192	0
TAP	74	192	1
TAP	75	0	0
TAP	75	192	0
TAP	76	0	0
HLD	77	0	7	336
TAP	79	0	0
TAP	79	0	1
TAP	80	0	1
TAP	81	0	2
TAP	82	0	3
TAP	82	192	3
TAP	83	0	4
TAP	83	0	5
TAP	84	0	5
TAP	85	0	6
TAP	86	0	7
TAP	86	192	7
TAP	87	0	0
TAP	87	192	0
TAP	88	0	7
TAP	88	96	7
TAP	88	192	6
TAP	88	288	6
HLD	89	0	6	192
TAP	90	0	5
TAP	90	96	5
TAP	90	192	4
TAP	90	288	4
HLD	91	0	4	192
TAP	92	0	3
TAP	92	96	3
TAP	92	192	2
TAP	92	288	2
HLD	93	0	2	192
TAP	94	0	1
TAP	94	96	1
TAP	94	192	0
TAP	94	288	0
HLD	95	0	0	192
HLD	96	0	7	192
HLD	97	0	0	192
HLD	97	0	7	192
TAP	98	0	0
TAP	98	0	7
BRK	99	0	0
BRK	99	0	7

T_REC_TAP	151
T_REC_BRK	5
T_REC_XTP	0
T_REC_HLD	11
T_REC_XHO	0
T_REC_STR	5
T_REC_BST	0
T_REC_XST	0
T_REC_TTP	0
T_REC_THO	0
T_REC_SLD	5
T_REC_ALL	177
T_NUM_TAP	156
T_NUM_BRK	5
T_NUM_HLD	11
T_NUM_SLD	5
T_NUM_ALL	177
T_JUDGE_TAP	161
T_JUDGE_HLD	57
T_JUDGE_SLD	5
T_JUDGE_ALL	223
TTM_EACHPAIRS	13
TTM_SCR_TAP	78000
TTM_SCR_BRK	13000
TTM_SCR_HLD	11000
TTM_SCR_SLD	7500
TTM_SCR_ALL	109500
TTM_SCR_S	105750
TTM_SCR_SS	109000
TTM_RAT_ACV	10045

