VERSION	0.00.00	1.03.00
FES_MODE	0
BPM_DEF	210.000	210.000	240.000	210.000
MET_DEF	4	4
RESOLUTION	384
CLK_DEF	480
COMPATIBLE_CODE	MA2

BPM	0	0	210.000
BPM	51	240	228.000
BPM	68	0	240.000
BPM	115	96	210.000
MET	0	0	4	5

TAP	1	96	5
TAP	1	144	4
TAP	1	192	3
TAP	1	240	2
TAP	1	288	3
TAP	1	336	4
TAP	2	0	1
TAP	2	48	0
TAP	2	96	6
TAP	2	144	7
TAP	2	192	2
TAP	2	240	3
TAP	2	288	4
TAP	2	336	5
TAP	3	0	4
TAP	3	48	3
TAP	3	96	6
TAP	3	144	7
TAP	3	192	1
TAP	3	240	0
TAP	3	288	5
TAP	3	336	4
TAP	4	0	3
TAP	4	48	2
TAP	4	96	3
TAP	4	144	4
TAP	4	192	1
TAP	4	240	0
TAP	4	288	6
TAP	4	336	7
STR	5	0	0
SI_	5	0	0	96	48	4
TAP	5	48	6
TAP	5	96	0
STR	5	144	7
SI_	5	144	7	96	48	3
TAP	5	192	1
TAP	5	240	7
STR	5	288	1
SI_	5	288	1	96	48	4
TAP	5	336	0
TAP	6	0	1
STR	6	48	6
SI_	6	48	6	96	48	3
TAP	6	96	7
TAP	6	144	6
TAP	6	192	0
TAP	6	240	7
TAP	6	288	2
TAP	6	336	3
TAP	7	0	4
TAP	7	48	5
TAP	7	96	4
TAP	7	144	3
TAP	7	192	6
TAP	7	240	7
TAP	7	288	1
TAP	7	336	0
TAP	8	0	5
TAP	8	48	4
TAP	8	96	3
TAP	8	144	2
TAP	8	192	3
TAP	8	240	4
TAP	8	288	1
TAP	8	336	0
TAP	9	0	6
TAP	9	48	7
TAP	9	96	2
TAP	9	144	3
TAP	9	192	4
TAP	9	240	5
TAP	9	288	4
TAP	9	336	3
TAP	10	0	6
TAP	10	48	7
TAP	10	96	1
TAP	10	144	0
STR	10	192	7
SI_	10	192	7	96	48	3
TAP	10	240	1
TAP	10	288	7
STR	10	336	0
SI_	10	336	0	96	48	4
TAP	11	0	6
TAP	11	48	0
STR	11	96	6
SI_	11	96	6	96	48	3
TAP	11	144	7
TAP	11	192	6
STR	11	240	1
SI_	11	240	1	96	48	4
TAP	11	288	0
TAP	11	336	1
TAP	12	0	7
TAP	12	48	0
STR	12	96	5
SUR	12	96	5	96	288	2
STR	12	288	4
SUL	12	288	4	96	288	7
TAP	13	0	4
STR	13	192	3
SUR	13	192	3	96	240	0
TAP	13	288	3
TAP	14	96	6
TAP	14	192	3
BRK	14	192	4
BRK	14	288	0
TAP	14	288	7
TAP	14	336	2
TAP	15	0	3
TAP	15	48	4
TAP	15	96	5
TAP	15	144	4
TAP	15	192	3
TAP	15	240	6
TAP	15	288	7
TAP	15	336	1
TAP	16	0	0
TAP	16	48	6
TAP	16	96	5
TAP	16	144	4
TAP	16	192	3
TAP	16	240	4
TAP	16	288	5
TAP	16	336	1
TAP	17	0	0
TAP	17	48	6
TAP	17	96	7
TAP	17	144	1
TAP	17	192	2
TAP	17	240	3
TAP	17	288	4
TAP	17	336	3
TAP	18	0	2
TAP	18	48	6
TAP	18	96	7
TAP	18	144	1
TAP	18	192	0
STR	18	240	7
SI_	18	240	7	96	48	3
TAP	18	288	1
TAP	18	336	7
STR	19	0	0
SI_	19	0	0	96	48	4
TAP	19	48	6
TAP	19	96	0
STR	19	144	6
SCL	19	144	6	96	48	3
TAP	19	192	7
TAP	19	240	6
STR	19	288	1
SCR	19	288	1	96	48	4
TAP	19	336	0
TAP	20	0	1
TAP	20	48	6
TAP	20	96	5
TAP	20	144	4
TAP	20	192	3
TAP	20	240	4
TAP	20	288	5
TAP	20	336	1
TAP	21	0	0
TAP	21	48	6
TAP	21	96	7
TAP	21	144	1
TAP	21	192	2
TAP	21	240	3
TAP	21	288	4
TAP	21	336	3
TAP	22	0	2
TAP	22	48	6
TAP	22	96	7
TAP	22	144	1
TAP	22	192	0
TAP	22	240	5
TAP	22	288	4
TAP	22	336	3
TAP	23	0	2
TAP	23	48	3
TAP	23	96	4
TAP	23	144	1
TAP	23	192	0
TAP	23	240	6
TAP	23	288	7
STR	23	336	0
SI_	23	336	0	96	48	4
TAP	24	0	6
TAP	24	48	0
STR	24	96	7
SI_	24	96	7	96	48	3
TAP	24	144	1
TAP	24	192	7
STR	24	240	1
SCR	24	240	1	96	48	4
TAP	24	288	0
TAP	24	336	1
STR	25	0	6
SCL	25	0	6	96	48	3
TAP	25	48	7
TAP	25	96	6
TAP	25	144	2
STR	25	192	1
SI_	25	192	1	96	48	4
TAP	25	288	1
TAP	25	288	5
STR	25	336	6
SI_	25	336	6	96	48	2
TAP	26	48	1
TAP	26	48	6
STR	26	96	0
SI_	26	96	0	96	48	4
TAP	26	192	0
TAP	26	192	6
BRK	26	240	7
HLD	26	336	1	96
HLD	27	48	2	96
HLD	27	144	4	96
HLD	27	240	6	96
HLD	27	336	5	96
STR	28	48	3
SUR	28	48	3	96	120	4
HLD	28	144	3	192
TAP	28	336	4
TAP	29	48	2
TAP	29	48	5
HLD	29	144	0	96
HLD	29	240	7	96
HLD	29	336	2	96
HLD	30	48	3	96
HLD	30	144	4	96
HLD	30	240	5	96
HLD	30	336	4	96
HLD	31	48	3	96
TAP	31	144	2
TAP	31	192	3
TAP	31	216	2
TAP	31	240	1
TAP	31	288	4
TAP	31	336	0
TAP	32	0	5
TAP	32	48	7
TAP	32	96	6
TAP	32	144	5
TAP	32	192	4
TAP	32	240	3
TAP	32	288	2
HLD	32	336	5	96
HLD	33	48	6	96
HLD	33	144	0	96
HLD	33	240	2	96
HLD	33	336	1	96
STR	34	48	7
SUR	34	48	7	96	120	0
HLD	34	144	7	192
TAP	34	336	0
TAP	35	48	1
TAP	35	48	6
HLD	35	144	3	96
HLD	35	240	4	96
HLD	35	336	1	96
HLD	36	48	0	96
HLD	36	144	7	96
HLD	36	240	6	96
HLD	36	336	7	96
HLD	37	48	0	96
TAP	37	144	1
TAP	37	192	0
TAP	37	216	1
TAP	37	240	2
TAP	37	288	7
TAP	37	336	3
TAP	38	0	6
TAP	38	48	4
TAP	38	96	5
TAP	38	144	6
TAP	38	192	7
TAP	38	240	0
TAP	38	288	1
TAP	38	336	2
TAP	38	336	5
TAP	39	48	3
TAP	39	96	4
TAP	39	144	3
TAP	39	192	4
TAP	39	240	2
TAP	39	240	6
TAP	39	336	4
TAP	40	0	3
TAP	40	48	4
TAP	40	96	3
TAP	40	144	1
TAP	40	144	5
TAP	40	240	2
TAP	40	288	5
TAP	40	336	2
TAP	41	0	5
TAP	41	48	1
TAP	41	48	7
TAP	41	144	5
TAP	41	192	2
TAP	41	240	5
TAP	41	288	2
TAP	41	336	0
TAP	41	336	6
TAP	42	48	3
TAP	42	96	5
TAP	42	144	2
TAP	42	192	6
TAP	42	240	1
TAP	42	288	7
TAP	42	336	0
TAP	42	360	1
TAP	43	0	2
TAP	43	24	3
TAP	43	48	4
TAP	43	72	5
TAP	43	96	6
TAP	43	120	7
BRK	43	144	0
TAP	43	144	2
TAP	43	240	5
BRK	43	240	7
TAP	43	336	3
TAP	43	336	6
TAP	44	0	0
TAP	44	0	5
TAP	44	48	2
TAP	44	48	7
STR	44	96	1
SCR	44	96	1	96	480	6
STR	44	96	4
SSL	44	96	4	96	480	0
TAP	46	0	0
TAP	46	24	1
TAP	46	48	2
TAP	46	72	3
TAP	46	96	4
TAP	46	120	5
TAP	46	144	6
TAP	46	168	7
TAP	46	192	0
TAP	46	216	1
TAP	46	240	2
TAP	46	264	3
TAP	46	288	7
TAP	46	312	6
TAP	46	336	5
TAP	46	360	4
TAP	47	0	3
TAP	47	24	2
TAP	47	48	1
TAP	47	72	0
TAP	47	96	7
TAP	47	120	6
TAP	47	144	5
TAP	47	168	4
TAP	47	192	3
TAP	47	240	7
TAP	47	264	0
TAP	47	288	1
TAP	47	336	4
TAP	48	0	0
TAP	48	24	7
TAP	48	48	6
TAP	48	96	3
TAP	48	144	0
TAP	48	168	1
TAP	48	192	2
TAP	48	240	4
TAP	48	288	7
TAP	48	312	6
TAP	48	336	5
TAP	49	0	3
STR	49	48	2
SI_	49	48	2	96	48	4
TAP	49	144	2
TAP	49	144	4
STR	49	192	5
SI_	49	192	5	96	48	3
TAP	49	288	2
TAP	49	288	5
STR	49	336	1
SI_	49	336	1	96	48	4
TAP	50	48	1
TAP	50	48	5
STR	50	96	6
SI_	50	96	6	96	48	3
TAP	50	192	1
TAP	50	192	6
STR	50	240	0
SI_	50	240	0	96	48	4
TAP	50	336	0
TAP	50	336	6
STR	51	0	7
SI_	51	0	7	96	48	3
TAP	51	96	1
TAP	51	96	7
BRK	51	144	0
HLD	51	240	1	96
HLD	51	336	3	96
HLD	52	48	5	96
HLD	52	144	7	96
STR	52	240	4
SUL	52	240	4	96	144	3
HLD	52	336	4	192
TAP	53	144	2
TAP	53	240	1
TAP	53	240	5
HLD	53	336	0	96
HLD	54	48	6	96
HLD	54	144	4	96
HLD	54	240	2	96
HLD	54	336	0	96
STR	55	48	3
SUR	55	48	3	96	144	5
HLD	55	144	3	192
TAP	55	336	6
TAP	56	48	7
TAP	56	96	1
TAP	56	96	7
TAP	56	144	0
TAP	56	192	0
TAP	56	192	6
HLD	56	240	5	96
HLD	56	336	7	96
HLD	57	48	1	96
HLD	57	144	3	96
STR	57	240	0
SUL	57	240	0	96	144	7
HLD	57	336	0	192
TAP	58	144	6
TAP	58	240	1
TAP	58	240	5
HLD	58	336	4	96
HLD	59	48	2	96
HLD	59	144	0	96
HLD	59	240	6	96
HLD	59	336	4	96
STR	60	48	7
SUR	60	48	7	96	144	1
HLD	60	144	7	192
TAP	60	336	2
TAP	61	48	3
TAP	61	96	3
TAP	61	96	5
TAP	61	144	4
TAP	61	192	2
TAP	61	192	4
STR	61	240	3
SI_	61	240	3	96	48	6
STR	61	336	3
SI_	61	336	3	96	48	0
TAP	62	48	3
STR	62	144	7
SCL	62	144	7	96	48	4
STR	62	240	7
SCR	62	240	7	96	48	2
TAP	62	336	7
STR	63	48	4
SI_	63	48	4	96	48	1
STR	63	144	4
SI_	63	144	4	96	48	7
TAP	63	240	4
STR	63	336	0
SCR	63	336	0	96	48	3
STR	64	48	0
SCL	64	48	0	96	48	5
TAP	64	144	0
HLD	64	240	0	96
HLD	64	336	2	96
HLD	65	48	4	96
HLD	65	144	7	96
HLD	65	240	5	96
TAP	65	336	3
TAP	66	48	2
TAP	66	48	6
TAP	66	144	1
TAP	66	144	7
TAP	66	228	0
TAP	66	228	4
TAP	66	312	1
TAP	66	312	5
TAP	67	12	2
TAP	67	12	4
TAP	67	84	3
TAP	67	84	7
TAP	67	168	2
TAP	67	168	6
TAP	67	240	3
TAP	67	240	5
TAP	67	312	0
TAP	67	312	4
TAP	68	0	2
HLD	68	0	5	96
TAP	68	96	2
TAP	68	192	2
HLD	68	192	6	192
TAP	68	288	2
TAP	69	0	3
TAP	69	96	3
HLD	69	96	4	96
TAP	69	192	3
TAP	69	240	4
TAP	69	288	3
TAP	70	0	2
HLD	70	0	5	96
TAP	70	96	2
TAP	70	144	5
TAP	70	192	2
TAP	70	240	6
TAP	70	288	2
TAP	71	0	3
HLD	71	0	7	96
TAP	71	96	3
TAP	71	144	7
TAP	71	192	3
TAP	71	240	4
TAP	71	288	3
HLD	72	0	2	96
TAP	72	0	5
TAP	72	96	5
HLD	72	192	1	192
TAP	72	192	5
TAP	72	288	5
TAP	73	0	4
HLD	73	96	3	96
TAP	73	96	4
TAP	73	192	4
TAP	73	240	3
TAP	73	288	4
HLD	74	0	2	96
TAP	74	0	5
TAP	74	96	5
TAP	74	144	2
TAP	74	192	5
TAP	74	240	1
TAP	74	288	5
TAP	75	0	0
TAP	75	0	4
TAP	75	144	3
TAP	75	144	7
TAP	75	276	2
TAP	75	276	6
HLD	76	0	5	384
TAP	76	288	4
TAP	76	336	3
HLD	77	0	2	144
HLD	77	144	6	112
HLD	77	256	0	128
HLD	78	0	4	144
HLD	78	144	5	128
HLD	78	272	7	112
HLD	79	0	3	144
HLD	79	144	1	112
TAP	79	256	0
HLD	80	0	2	384
TAP	80	288	3
TAP	80	336	4
HLD	81	0	5	144
HLD	81	144	1	128
HLD	81	272	7	112
HLD	82	0	3	144
HLD	82	144	2	112
HLD	82	256	0	128
HLD	83	0	4	112
HLD	83	112	6	144
TAP	83	256	7
TAP	84	0	2
HLD	84	0	5	876
TAP	84	132	3
TAP	84	264	4
TAP	85	12	6
TAP	85	156	7
TAP	85	324	0
TAP	86	108	1
TAP	86	288	0
TAP	86	288	4
TAP	86	336	0
TAP	86	336	4
TAP	87	0	1
TAP	87	0	5
TAP	87	48	1
TAP	87	48	5
TAP	87	96	2
TAP	87	96	6
TAP	87	144	2
TAP	87	144	6
TAP	87	192	3
TAP	87	192	7
TAP	87	240	3
TAP	87	240	7
TAP	87	288	2
TAP	87	288	6
TAP	87	336	2
TAP	87	336	6
TAP	88	0	1
TAP	88	0	5
TAP	88	48	1
TAP	88	48	5
TAP	88	96	0
TAP	88	144	7
TAP	88	192	1
TAP	88	240	6
TAP	88	288	0
TAP	88	336	7
TAP	89	0	3
TAP	89	48	4
TAP	89	96	2
TAP	89	144	5
STR	89	192	3
SI_	89	192	3	96	96	7
TAP	89	240	4
HLD	89	288	3	96
TAP	90	48	2
TAP	90	48	6
TAP	90	72	1
TAP	90	72	5
TAP	90	96	0
TAP	90	96	4
TAP	90	144	3
TAP	90	192	2
TAP	90	240	5
TAP	90	288	1
TAP	90	336	6
TAP	91	0	0
TAP	91	48	7
TAP	91	96	5
TAP	91	144	4
TAP	91	192	3
TAP	91	240	2
TAP	91	288	6
TAP	91	336	7
TAP	92	0	2
TAP	92	48	3
TAP	92	96	4
TAP	92	144	5
TAP	92	192	1
TAP	92	240	0
STR	92	288	2
SCR	92	288	2	96	96	5
STR	93	0	5
SCR	93	0	5	96	96	0
STR	93	96	0
SCR	93	96	0	96	96	3
STR	93	192	3
SI_	93	192	3	96	96	7
STR	93	288	7
SCL	93	288	7	96	48	4
TAP	94	0	2
TAP	94	96	7
TAP	94	144	0
TAP	94	192	6
TAP	94	240	1
TAP	94	288	7
TAP	94	336	0
TAP	95	0	4
TAP	95	48	3
TAP	95	96	5
TAP	95	144	2
STR	95	192	4
SI_	95	192	4	96	96	0
TAP	95	240	3
HLD	95	288	4	96
TAP	96	48	1
TAP	96	48	5
TAP	96	72	2
TAP	96	72	6
TAP	96	96	3
TAP	96	96	7
TAP	96	144	4
TAP	96	192	5
TAP	96	240	2
TAP	96	288	6
TAP	96	336	1
TAP	97	0	7
TAP	97	48	0
TAP	97	96	2
TAP	97	144	3
TAP	97	192	4
TAP	97	240	5
TAP	97	288	1
TAP	97	336	0
TAP	98	0	5
TAP	98	48	4
TAP	98	96	3
TAP	98	144	2
TAP	98	192	6
TAP	98	240	7
STR	98	288	0
SCR	98	288	0	96	48	3
TAP	99	0	0
STR	99	48	7
SUR	99	48	7	96	48	4
TAP	99	144	7
STR	99	192	0
SUL	99	192	0	96	48	3
TAP	99	288	0
STR	99	336	7
SCL	99	336	7	96	48	4
TAP	100	48	7
TAP	100	96	0
TAP	100	144	6
TAP	100	192	1
TAP	100	240	5
TAP	100	288	2
TAP	100	336	4
TAP	101	0	1
TAP	101	48	7
TAP	101	96	2
TAP	101	144	6
TAP	101	192	3
TAP	101	240	5
STR	101	288	2
SI_	101	288	2	96	96	5
STR	102	0	5
SI_	102	0	5	96	96	0
STR	102	96	0
SI_	102	96	0	96	96	3
STR	102	192	3
SI_	102	192	3	96	96	7
STR	102	288	7
SI_	102	288	7	96	48	3
TAP	103	0	2
TAP	103	96	7
TAP	103	144	1
TAP	103	192	6
TAP	103	240	2
TAP	103	288	5
TAP	103	336	3
TAP	104	0	6
TAP	104	48	0
TAP	104	96	5
TAP	104	144	1
TAP	104	192	4
TAP	104	240	2
STR	104	288	5
SI_	104	288	5	96	96	2
STR	105	0	2
SI_	105	0	2	96	96	7
STR	105	96	7
SI_	105	96	7	96	96	4
STR	105	192	4
SI_	105	192	4	96	96	0
STR	105	288	0
SI_	105	288	0	96	48	4
TAP	106	0	5
TAP	106	96	6
TAP	106	144	1
TAP	106	192	5
TAP	106	240	2
TAP	106	288	7
TAP	106	336	0
TAP	107	0	5
TAP	107	48	2
TAP	107	96	6
TAP	107	144	1
TAP	107	192	4
TAP	107	240	3
STR	107	288	5
SCL	107	288	5	96	96	2
STR	108	0	2
SCL	108	0	2	96	96	7
STR	108	96	7
SCL	108	96	7	96	96	4
STR	108	192	4
SI_	108	192	4	96	96	0
STR	108	288	0
SCR	108	288	0	96	48	3
TAP	109	0	5
TAP	109	96	2
TAP	109	144	5
TAP	109	192	1
TAP	109	240	6
TAP	109	288	3
TAP	109	336	4
TAP	110	0	1
TAP	110	48	6
TAP	110	96	2
TAP	110	144	5
TAP	110	192	0
TAP	110	240	7
STR	110	288	2
SCR	110	288	2	96	96	5
STR	111	0	5
SUR	111	0	5	96	96	1
STR	111	96	1
SUR	111	96	1	96	96	5
STR	111	192	5
SCR	111	192	5	96	96	0
STR	111	288	0
SI_	111	288	0	96	48	4
BRK	112	0	2
STR	112	96	5
SCL	112	96	5	96	96	2
STR	112	192	2
SUL	112	192	2	96	96	6
STR	112	288	6
SUL	112	288	6	96	96	2
STR	113	0	2
SCL	113	0	2	96	96	7
STR	113	96	7
SI_	113	96	7	96	48	3
BRK	113	192	5
TAP	113	288	1
TAP	113	312	0
TAP	113	336	7
TAP	113	360	6
TAP	114	0	5
TAP	114	24	4
TAP	114	48	2
TAP	114	72	1
TAP	114	96	0
TAP	114	120	7
TAP	114	144	6
TAP	114	168	5
TAP	114	192	6
TAP	114	216	7
TAP	114	240	0
TAP	114	264	1
TAP	114	288	2
TAP	114	312	3
TAP	114	336	5
TAP	114	360	6
TAP	115	0	7
TAP	115	24	0
TAP	115	48	1
TAP	115	72	2
STR	115	96	3
SUR	115	96	3	96	336	4
STR	115	288	5
SUR	115	288	5	96	336	2
TAP	116	0	5
STR	116	192	1
SCL	116	192	1	96	240	6
TAP	116	288	1
TAP	117	96	1
BRK	117	192	0
BRK	117	192	4
BRK	117	288	3
BRK	117	288	7
TAP	117	336	5
TAP	118	0	4
TAP	118	48	3
TAP	118	96	2
TAP	118	144	3
TAP	118	192	4
TAP	118	240	6
TAP	118	288	7
TAP	118	336	1
TAP	119	0	0
TAP	119	48	3
TAP	119	96	4
TAP	119	144	5
TAP	119	192	6
TAP	119	240	5
TAP	119	288	4
TAP	119	336	1
TAP	120	0	0
TAP	120	48	6
TAP	120	96	7
TAP	120	144	4
TAP	120	192	3
TAP	120	240	2
TAP	120	288	1
TAP	120	336	2
TAP	121	0	3
TAP	121	48	6
TAP	121	96	7
TAP	121	144	1
TAP	121	192	0
TAP	121	240	3
TAP	121	288	7
TAP	121	312	0
TAP	121	336	1
TAP	122	0	4
TAP	122	48	0
TAP	122	72	7
TAP	122	96	6
TAP	122	144	3
TAP	122	192	0
TAP	122	216	1
TAP	122	240	2
TAP	122	288	4
TAP	122	336	7
TAP	122	360	6
TAP	123	0	5
TAP	123	48	3
STR	123	96	2
SI_	123	96	2	96	48	4
TAP	123	192	2
TAP	123	192	4
STR	123	240	5
SI_	123	240	5	96	48	3
TAP	123	336	2
TAP	123	336	5
STR	124	0	1
SI_	124	0	1	96	48	4
TAP	124	96	1
TAP	124	96	5
STR	124	144	6
SI_	124	144	6	96	48	3
TAP	124	240	1
TAP	124	240	6
STR	124	288	0
SI_	124	288	0	96	48	4
TAP	125	0	0
TAP	125	0	6
BRK	125	48	7
TAP	125	144	0
TAP	125	192	1
TAP	125	192	7
TAP	125	240	2
TAP	125	240	6
TAP	125	288	3
TAP	125	288	5
TAP	125	336	4
TAP	126	0	3
TAP	126	0	5
STR	126	48	2
SI_	126	48	2	96	48	4
STR	126	48	6
SI_	126	48	6	96	48	4
STR	126	144	2
SI_	126	144	2	96	48	0
STR	126	144	6
SI_	126	144	6	96	48	0
TAP	126	240	2
TAP	126	240	6
STR	127	0	0
SI_	127	0	0	96	816	3
STR	127	0	3
SCR	127	0	3	96	816	5

T_REC_TAP	647
T_REC_BRK	13
T_REC_XTP	0
T_REC_HLD	85
T_REC_XHO	0
T_REC_STR	94
T_REC_BST	0
T_REC_XST	0
T_REC_TTP	0
T_REC_THO	0
T_REC_SLD	94
T_REC_ALL	933
T_NUM_TAP	741
T_NUM_BRK	13
T_NUM_HLD	85
T_NUM_SLD	94
T_NUM_ALL	933
T_JUDGE_TAP	754
T_JUDGE_HLD	185
T_JUDGE_SLD	94
T_JUDGE_ALL	1033
TTM_EACHPAIRS	85
TTM_SCR_TAP	370500
TTM_SCR_BRK	33800
TTM_SCR_HLD	85000
TTM_SCR_SLD	141000
TTM_SCR_ALL	630300
TTM_SCR_S	610150
TTM_SCR_SS	629000
TTM_RAT_ACV	10020

