VERSION	0.00.00	1.03.00
FES_MODE	0
BPM_DEF	210.000	210.000	240.000	210.000
MET_DEF	4	4
RESOLUTION	384
CLK_DEF	480
COMPATIBLE_CODE	MA2

BPM	0	0	210.000
BPM	51	240	228.000
BPM	68	0	240.000
BPM	115	96	210.000
MET	0	0	4	5
MET	88	288	4	4
CLK	83	288

TAP	1	96	2
TAP	1	144	3
TAP	1	192	2
TAP	1	240	5
TAP	1	288	4
TAP	1	336	5
TAP	2	0	2
TAP	2	48	3
TAP	2	96	0
TAP	2	144	0
TAP	2	192	5
TAP	2	240	4
TAP	2	288	5
TAP	2	336	2
TAP	3	0	3
TAP	3	48	2
TAP	3	96	5
TAP	3	144	4
TAP	3	192	7
TAP	3	240	7
TAP	3	288	2
TAP	3	336	3
TAP	4	0	2
TAP	4	48	5
TAP	4	96	4
TAP	4	144	5
TAP	4	192	2
TAP	4	240	3
TAP	4	288	0
TAP	4	336	7
TAP	5	0	1
TAP	5	48	0
TAP	5	96	1
TAP	5	144	6
TAP	5	192	7
TAP	5	240	6
TAP	5	288	1
TAP	5	336	6
TAP	6	0	1
TAP	6	48	7
TAP	6	96	0
TAP	6	144	7
TAP	6	192	0
TAP	6	240	7
TAP	6	288	1
TAP	6	336	3
TAP	7	0	1
TAP	7	48	6
TAP	7	96	4
TAP	7	144	6
TAP	7	192	1
TAP	7	240	3
TAP	7	288	2
TAP	7	336	2
TAP	8	0	6
TAP	8	48	4
TAP	8	96	6
TAP	8	144	1
TAP	8	192	3
TAP	8	240	1
TAP	8	288	6
TAP	8	336	4
TAP	9	0	5
TAP	9	48	5
TAP	9	96	2
TAP	9	144	4
TAP	9	192	2
TAP	9	240	5
TAP	9	288	3
TAP	9	336	5
TAP	10	0	2
TAP	10	48	4
TAP	10	96	0
TAP	10	144	7
TAP	10	192	2
TAP	10	240	0
TAP	10	288	2
TAP	10	336	5
TAP	11	0	7
TAP	11	48	5
TAP	11	96	1
TAP	11	144	6
TAP	11	192	1
TAP	11	240	7
TAP	11	288	0
TAP	11	336	7
TAP	12	0	0
TAP	12	48	7
HLD	12	96	0	192
TAP	12	288	2
HLD	13	0	2	192
TAP	13	192	4
HLD	13	288	4	192
TAP	14	96	6
BRK	14	192	0
BRK	14	288	0
STR	14	336	0
SCR	14	336	0	96	240	6
TAP	15	288	7
TAP	16	0	7
STR	16	48	7
SCL	16	48	7	96	240	1
TAP	17	0	0
TAP	17	96	0
STR	17	144	0
SUL	17	144	0	96	240	3
TAP	18	96	7
TAP	18	192	7
HLD	18	240	7	192
HLD	19	48	6	192
HLD	19	240	5	192
STR	20	48	4
SUL	20	48	4	96	192	7
TAP	21	0	5
TAP	21	96	5
STR	21	144	5
SUR	21	144	5	96	192	2
TAP	22	96	0
TAP	22	192	0
STR	22	240	0
SSL	22	240	0	96	192	4
TAP	23	192	0
TAP	23	288	0
HLD	23	336	0	192
HLD	24	144	4	192
TAP	24	336	6
TAP	25	144	2
TAP	25	192	3
TAP	25	288	5
TAP	25	336	4
TAP	26	48	1
TAP	26	96	3
TAP	26	192	6
TAP	26	240	4
HLD	26	336	1	96
HLD	27	48	0	96
HLD	27	144	7	96
HLD	27	240	6	96
HLD	27	336	5	96
HLD	28	48	4	96
HLD	28	144	3	192
TAP	28	336	4
TAP	29	48	3
HLD	29	144	4	96
HLD	29	240	5	96
HLD	29	336	6	96
HLD	30	48	7	96
HLD	30	144	0	96
HLD	30	240	1	96
HLD	30	336	2	96
HLD	31	48	3	96
HLD	31	144	4	192
STR	31	336	0
SI_	31	336	0	96	48	4
HLD	32	336	1	96
TAP	33	48	0
HLD	33	144	4	96
TAP	33	240	5
HLD	33	336	2	96
TAP	34	48	3
HLD	34	144	7	192
TAP	34	336	6
TAP	35	48	6
HLD	35	144	1	96
HLD	35	240	0	96
HLD	35	336	7	96
HLD	36	48	6	96
HLD	36	144	1	96
HLD	36	240	0	96
HLD	36	336	7	96
TAP	37	48	6
TAP	37	144	0
TAP	37	144	7
STR	37	336	0
SI_	37	336	0	96	72	4
STR	37	336	7
SI_	37	336	7	96	72	3
TAP	38	336	0
STR	39	48	0
SI_	39	48	0	96	72	4
TAP	39	240	7
STR	39	336	7
SI_	39	336	7	96	72	3
TAP	40	144	1
STR	40	240	1
SCL	40	240	1	96	72	6
STR	41	48	0
SCR	41	48	0	96	72	4
TAP	41	336	0
TAP	41	336	4
TAP	42	48	1
TAP	42	48	5
TAP	42	144	2
TAP	42	144	6
TAP	42	240	3
TAP	42	240	7
TAP	42	336	0
TAP	42	336	4
TAP	43	48	3
TAP	43	48	7
BRK	43	144	0
BRK	43	144	7
BRK	43	240	1
BRK	43	240	6
STR	43	288	6
SUR	43	288	6	96	192	4
TAP	44	240	4
TAP	44	240	6
TAP	44	336	5
STR	45	0	5
SUR	45	0	5	96	192	2
TAP	45	336	1
TAP	45	336	3
TAP	46	48	2
STR	46	96	2
SUR	46	96	2	96	192	0
TAP	47	48	1
TAP	47	48	7
TAP	47	144	0
HLD	47	192	0	192
HLD	48	0	2	192
TAP	48	192	4
TAP	49	0	6
TAP	49	0	7
TAP	49	48	6
TAP	49	48	7
TAP	49	144	2
TAP	49	144	3
TAP	49	192	2
TAP	49	192	3
TAP	49	288	0
TAP	49	288	1
TAP	49	336	0
TAP	49	336	1
TAP	50	48	4
TAP	50	48	5
TAP	50	96	4
TAP	50	96	5
TAP	50	192	0
TAP	50	192	7
TAP	50	240	0
TAP	50	240	7
TAP	50	336	1
TAP	50	336	3
TAP	51	0	1
TAP	51	0	3
TAP	51	96	4
TAP	51	96	6
TAP	51	144	4
TAP	51	144	6
BRK	51	240	1
BRK	51	240	6
TAP	51	336	1
TAP	52	0	0
TAP	52	48	1
TAP	52	144	3
TAP	52	144	7
TAP	52	240	0
TAP	52	240	4
TAP	52	336	1
TAP	52	336	6
TAP	53	48	6
TAP	53	96	7
TAP	53	144	6
TAP	53	240	0
TAP	53	240	4
TAP	53	336	3
TAP	53	336	7
TAP	54	48	1
TAP	54	48	6
TAP	54	144	1
TAP	54	192	7
STR	54	240	0
SV_	54	240	0	96	48	2
TAP	54	336	6
TAP	55	48	6
TAP	55	144	2
TAP	55	144	6
TAP	55	240	1
TAP	55	240	5
TAP	55	336	0
TAP	55	336	4
TAP	56	48	3
TAP	56	48	7
TAP	56	144	0
TAP	56	144	4
TAP	56	240	1
TAP	56	240	5
TAP	56	336	2
TAP	57	0	5
STR	57	48	0
SI_	57	48	0	96	48	4
STR	57	144	7
SI_	57	144	7	96	48	3
TAP	57	336	1
TAP	58	48	5
TAP	58	96	2
STR	58	144	3
SI_	58	144	3	96	72	7
TAP	58	240	0
TAP	58	336	0
TAP	59	48	5
TAP	59	48	6
TAP	59	144	4
TAP	59	144	5
TAP	59	240	3
TAP	59	240	4
TAP	59	336	2
TAP	59	336	3
TAP	60	48	1
TAP	60	48	2
TAP	60	144	0
TAP	60	144	7
TAP	60	336	1
BRK	61	48	6
HLD	61	240	0	96
HLD	61	240	1	96
HLD	62	0	0	96
HLD	62	0	1	96
HLD	62	144	2	96
HLD	62	144	3	96
HLD	62	288	2	96
HLD	62	288	3	96
HLD	63	48	4	96
HLD	63	48	5	96
HLD	63	192	4	96
HLD	63	192	5	96
HLD	63	336	6	96
HLD	63	336	7	96
TAP	64	96	6
TAP	64	96	7
TAP	64	240	1
TAP	64	336	3
TAP	65	48	5
TAP	65	144	7
TAP	65	240	4
TAP	65	336	2
TAP	66	48	0
TAP	66	144	6
TAP	66	228	1
TAP	66	312	7
TAP	67	12	6
TAP	67	84	5
TAP	67	168	0
TAP	67	240	1
TAP	67	312	2
HLD	68	0	6	192
HLD	68	192	4	288
TAP	69	96	0
HLD	69	240	2	144
HLD	70	0	3	144
HLD	70	144	7	144
HLD	70	288	5	96
HLD	71	0	1	144
HLD	71	144	7	144
TAP	71	288	0
HLD	72	0	1	192
HLD	72	192	3	288
TAP	73	96	7
HLD	73	240	5	144
HLD	74	0	2	144
HLD	74	144	3	144
TAP	74	288	4
TAP	75	0	4
TAP	75	0	5
TAP	75	144	3
TAP	75	144	4
TAP	75	276	2
TAP	75	276	3
BRK	76	0	1
BRK	76	0	6
TAP	76	288	3
TAP	76	336	4
HLD	77	0	3	144
HLD	77	144	7	144
HLD	77	288	1	96
HLD	78	0	5	144
HLD	78	144	2	144
HLD	78	288	3	96
HLD	79	0	4	144
HLD	79	144	5	144
TAP	79	288	6
HLD	80	0	5	288
TAP	80	288	1
TAP	80	336	3
HLD	81	0	1	144
HLD	81	144	3	144
HLD	81	288	7	96
HLD	82	0	5	144
HLD	82	144	0	144
HLD	82	288	1	96
HLD	83	0	2	144
HLD	83	144	7	144
TAP	83	288	6
TAP	84	0	6
TAP	84	132	2
TAP	84	264	1
TAP	85	12	0
TAP	85	156	7
TAP	85	324	6
BRK	86	108	2
BRK	86	108	5
TAP	86	288	0
TAP	86	336	7
TAP	87	0	1
TAP	87	48	6
TAP	87	96	0
TAP	87	144	7
TAP	87	192	1
TAP	87	240	6
TAP	87	288	0
TAP	87	336	7
TAP	88	0	1
TAP	88	48	6
BRK	88	96	0
TAP	88	192	4
TAP	88	240	3
TAP	88	288	5
TAP	89	0	2
TAP	89	48	3
TAP	89	96	1
TAP	89	144	4
TAP	89	192	2
TAP	89	240	3
TAP	89	288	1
TAP	90	0	7
TAP	90	48	0
TAP	90	96	6
TAP	90	192	1
TAP	90	240	0
TAP	90	288	2
TAP	90	336	7
TAP	91	0	1
TAP	91	48	0
TAP	91	96	2
TAP	91	192	6
TAP	91	240	2
TAP	91	288	4
TAP	92	0	1
TAP	92	48	0
TAP	92	96	2
TAP	92	144	7
TAP	92	192	3
TAP	92	240	6
TAP	92	288	4
TAP	93	0	1
TAP	93	48	5
TAP	93	96	3
TAP	93	192	6
TAP	93	240	7
TAP	93	288	5
TAP	93	336	0
TAP	94	0	4
TAP	94	48	1
TAP	94	96	3
TAP	94	192	2
TAP	94	240	5
TAP	94	288	2
TAP	95	0	7
TAP	95	48	0
TAP	95	96	6
TAP	95	144	1
TAP	95	192	5
TAP	95	240	2
TAP	95	288	4
TAP	96	0	1
TAP	96	48	6
TAP	96	96	1
TAP	96	192	7
TAP	96	240	3
TAP	96	288	6
TAP	96	336	2
TAP	97	0	5
TAP	97	48	1
TAP	97	96	4
TAP	97	192	0
TAP	97	240	7
STR	97	288	0
SCR	97	288	0	96	144	4
TAP	98	144	7
TAP	98	192	7
BRK	98	288	0
BRK	98	288	1
BRK	99	48	4
BRK	99	48	5
BRK	99	192	0
BRK	99	192	1
BRK	99	336	4
BRK	99	336	5
HLD	100	96	2	288
HLD	101	0	6	192
STR	101	192	0
SI_	101	192	0	96	48	4
TAP	101	288	7
STR	102	0	7
SI_	102	0	7	96	48	3
TAP	102	96	1
STR	102	192	1
SI_	102	192	1	96	48	4
TAP	102	288	6
STR	103	0	6
SI_	103	0	6	96	48	3
BRK	103	96	0
TAP	104	0	1
TAP	104	0	6
STR	104	192	0
SI_	104	192	0	96	48	2
TAP	104	288	4
STR	105	0	4
SI_	105	0	4	96	48	6
TAP	105	96	2
STR	105	192	2
SI_	105	192	2	96	48	4
TAP	105	288	6
STR	106	0	6
SI_	106	0	6	96	48	0
BRK	106	96	2
TAP	107	0	1
TAP	107	0	6
STR	107	192	0
SCR	107	192	0	96	48	2
TAP	107	288	7
STR	108	0	7
SCL	108	0	7	96	48	5
TAP	108	96	1
STR	108	192	1
SCR	108	192	1	96	48	3
TAP	108	288	6
STR	109	0	6
SCL	109	0	6	96	48	4
BRK	109	96	1
TAP	110	0	1
TAP	110	0	6
STR	110	192	0
SI_	110	192	0	96	48	4
TAP	110	288	7
STR	111	0	7
SI_	111	0	7	96	48	3
TAP	111	96	1
STR	111	192	1
SI_	111	192	1	96	48	4
TAP	111	288	6
STR	112	0	6
SI_	112	0	6	96	48	3
TAP	112	96	0
STR	112	192	0
SUL	112	192	0	96	72	3
TAP	112	288	7
STR	113	0	7
SUR	113	0	7	96	72	4
STR	113	192	2
SCL	113	192	2	96	480	3
HLD	115	96	7	192
TAP	115	288	5
HLD	116	0	5	192
TAP	116	192	3
HLD	116	288	3	192
TAP	117	96	1
BRK	117	192	7
BRK	117	288	7
STR	117	336	7
SSR	117	336	7	96	192	3
TAP	118	288	0
TAP	119	0	0
STR	119	48	0
SSL	119	48	0	96	192	4
TAP	120	0	5
TAP	120	96	5
STR	120	144	5
SUL	120	144	5	96	192	2
TAP	121	96	1
TAP	121	192	2
HLD	121	240	2	192
HLD	122	48	4	192
TAP	122	240	6
TAP	123	48	1
TAP	123	96	0
TAP	123	96	2
TAP	123	192	5
TAP	123	240	4
TAP	123	240	6
TAP	123	336	2
TAP	124	0	1
TAP	124	0	3
TAP	124	96	6
TAP	124	144	5
TAP	124	144	7
TAP	124	240	0
TAP	124	240	1
TAP	124	288	2
TAP	124	288	7
TAP	125	0	6
TAP	125	0	7
TAP	125	48	0
TAP	125	48	5
TAP	125	144	2
TAP	125	192	3
TAP	125	240	4
TAP	125	288	5
TAP	125	336	4
TAP	126	0	3
TAP	126	48	2
TAP	126	96	1
TAP	126	144	0
TAP	126	192	7
TAP	126	240	6
TAP	126	288	5
TAP	126	336	4
STR	127	0	3
SCL	127	0	3	96	720	4

T_REC_TAP	407
T_REC_BRK	27
T_REC_XTP	0
T_REC_HLD	88
T_REC_XHO	0
T_REC_STR	44
T_REC_BST	0
T_REC_XST	0
T_REC_TTP	0
T_REC_THO	0
T_REC_SLD	44
T_REC_ALL	610
T_NUM_TAP	451
T_NUM_BRK	27
T_NUM_HLD	88
T_NUM_SLD	44
T_NUM_ALL	610
T_JUDGE_TAP	478
T_JUDGE_HLD	211
T_JUDGE_SLD	44
T_JUDGE_ALL	733
TTM_EACHPAIRS	74
TTM_SCR_TAP	225500
TTM_SCR_BRK	70200
TTM_SCR_HLD	88000
TTM_SCR_SLD	66000
TTM_SCR_ALL	449700
TTM_SCR_S	433600
TTM_SCR_SS	447000
TTM_RAT_ACV	10060

