VERSION	0.00.00	1.03.00
FES_MODE	0
BPM_DEF	210.000	210.000	240.000	210.000
MET_DEF	4	4
RESOLUTION	384
CLK_DEF	480
COMPATIBLE_CODE	MA2

BPM	0	0	210.000
BPM	51	240	228.000
BPM	68	0	240.000
BPM	115	96	210.000
MET	0	0	4	5

STR	1	96	0
SI_	1	96	0	96	240	4
STR	2	192	7
SI_	2	192	7	96	192	5
STR	3	288	1
SI_	3	288	1	96	192	3
TAP	5	0	4
TAP	5	0	5
TAP	5	144	2
TAP	5	144	3
TAP	5	288	0
TAP	5	288	1
TAP	6	48	6
TAP	6	48	7
TAP	6	192	0
STR	6	288	7
SI_	6	288	7	96	240	3
STR	8	0	0
SI_	8	0	0	96	192	2
STR	9	96	6
SI_	9	96	6	96	192	4
TAP	10	192	2
TAP	10	192	3
TAP	10	336	4
TAP	10	336	5
TAP	11	96	6
TAP	11	96	7
TAP	11	240	0
TAP	11	240	1
TAP	12	0	2
TAP	12	0	7
TAP	12	96	2
TAP	12	96	7
TAP	12	288	0
TAP	12	288	5
TAP	13	0	0
TAP	13	0	5
TAP	13	192	3
TAP	13	192	4
TAP	13	288	3
TAP	13	288	4
BRK	14	192	0
BRK	14	192	7
BRK	14	288	0
BRK	14	288	7
TAP	15	96	1
TAP	15	240	2
TAP	15	336	2
TAP	16	48	7
TAP	16	192	6
TAP	16	336	5
TAP	17	48	5
TAP	17	144	3
TAP	17	288	4
TAP	18	48	2
TAP	18	48	5
TAP	18	144	2
TAP	18	144	5
TAP	18	240	3
TAP	18	240	4
TAP	19	48	2
TAP	19	48	5
TAP	19	240	1
TAP	19	240	6
TAP	20	48	3
TAP	20	192	2
TAP	20	336	1
TAP	21	48	1
TAP	21	144	4
TAP	21	288	5
TAP	22	48	6
TAP	22	144	6
TAP	22	240	0
TAP	23	0	7
TAP	23	144	1
TAP	23	144	6
TAP	23	240	1
TAP	23	240	6
TAP	23	336	0
TAP	23	336	7
TAP	24	144	1
TAP	24	144	6
TAP	24	336	2
TAP	24	336	5
TAP	25	144	3
TAP	25	192	3
TAP	25	288	5
TAP	25	336	5
TAP	26	48	1
TAP	26	96	1
TAP	26	192	7
TAP	26	240	7
TAP	26	336	2
TAP	27	48	3
TAP	27	144	4
TAP	27	240	5
TAP	27	336	4
TAP	28	48	3
HLD	28	144	2	288
TAP	29	48	3
TAP	29	336	5
TAP	30	48	4
TAP	30	144	3
TAP	30	240	2
TAP	30	336	3
TAP	31	48	4
HLD	31	144	5	288
TAP	32	48	4
TAP	32	336	1
TAP	33	48	0
TAP	33	144	7
TAP	33	240	6
TAP	33	336	7
TAP	34	48	0
HLD	34	144	1	288
TAP	35	48	0
TAP	35	336	6
TAP	36	48	7
TAP	36	144	0
TAP	36	240	1
TAP	36	336	0
TAP	37	48	7
HLD	37	144	6	288
TAP	38	48	7
TAP	38	336	5
TAP	39	48	5
TAP	39	144	5
TAP	39	240	3
TAP	39	336	3
TAP	40	48	3
TAP	40	144	4
TAP	40	240	4
TAP	40	336	4
TAP	41	48	2
TAP	41	144	2
TAP	41	240	2
TAP	41	336	7
TAP	42	48	7
TAP	42	144	7
TAP	42	240	0
TAP	42	336	0
TAP	43	48	0
BRK	43	144	1
BRK	43	144	6
BRK	43	240	1
BRK	43	240	6
STR	43	336	0
SCR	43	336	0	96	1056	7
TAP	47	192	2
TAP	47	192	4
TAP	48	0	3
TAP	48	0	5
TAP	48	192	1
TAP	48	192	6
TAP	49	0	0
TAP	49	48	0
TAP	49	144	6
TAP	49	192	6
TAP	49	288	2
TAP	49	336	2
TAP	50	48	4
TAP	50	96	4
TAP	50	192	1
TAP	50	240	1
TAP	50	336	5
TAP	51	0	5
TAP	51	96	0
TAP	51	144	0
TAP	51	240	6
TAP	51	336	5
TAP	52	48	4
TAP	52	144	1
TAP	52	240	2
TAP	52	336	3
TAP	53	48	4
TAP	53	144	3
TAP	53	240	2
TAP	53	240	5
TAP	54	48	1
TAP	54	144	2
TAP	54	240	3
TAP	54	336	6
TAP	55	48	5
TAP	55	144	4
TAP	55	240	3
TAP	55	336	4
TAP	56	48	2
TAP	56	48	5
TAP	56	240	1
TAP	56	336	0
TAP	57	48	7
TAP	57	144	6
TAP	57	240	7
TAP	57	336	0
TAP	58	48	7
TAP	58	144	0
TAP	58	240	1
TAP	58	240	6
TAP	59	48	6
TAP	59	144	7
TAP	59	240	0
TAP	59	336	1
TAP	60	48	0
TAP	60	144	7
TAP	60	240	0
TAP	60	336	7
TAP	61	48	1
TAP	61	48	6
TAP	61	240	2
TAP	61	336	2
TAP	62	48	2
TAP	62	144	4
TAP	62	240	4
TAP	62	336	4
TAP	63	48	3
TAP	63	144	3
TAP	63	240	3
TAP	63	336	5
TAP	64	48	5
TAP	64	144	5
TAP	64	240	0
TAP	64	336	0
TAP	65	48	0
TAP	65	144	7
TAP	65	240	7
TAP	65	336	7
TAP	66	48	1
TAP	66	48	6
TAP	66	144	2
TAP	66	144	5
TAP	66	240	3
TAP	66	240	4
TAP	66	336	2
TAP	67	24	2
TAP	67	96	2
TAP	67	168	5
TAP	67	240	5
TAP	67	312	5
TAP	68	0	3
TAP	68	96	4
TAP	68	192	3
TAP	68	288	4
TAP	69	0	2
TAP	69	96	5
TAP	69	192	2
TAP	69	288	5
TAP	70	0	1
TAP	70	96	6
TAP	70	192	1
TAP	70	288	6
TAP	71	0	0
TAP	71	96	7
TAP	71	192	0
TAP	71	288	7
TAP	72	0	1
TAP	72	96	6
TAP	72	192	1
TAP	72	288	6
TAP	73	0	2
TAP	73	96	5
TAP	73	192	2
TAP	73	288	5
TAP	74	0	3
TAP	74	96	4
TAP	74	192	3
TAP	74	288	4
TAP	75	0	2
TAP	75	120	5
BRK	75	240	0
BRK	75	240	7
TAP	76	0	1
TAP	76	192	0
TAP	76	192	1
TAP	77	0	2
TAP	77	192	2
TAP	77	192	3
TAP	78	0	5
TAP	78	192	4
TAP	78	192	5
TAP	79	0	6
TAP	79	192	6
TAP	79	192	7
TAP	80	0	5
TAP	80	192	4
TAP	80	192	5
TAP	81	0	2
TAP	81	192	2
TAP	81	192	3
TAP	82	0	1
TAP	82	192	0
TAP	82	192	1
TAP	83	0	6
TAP	83	192	6
TAP	83	192	7
TAP	84	0	5
TAP	84	132	4
TAP	84	264	3
TAP	85	12	2
TAP	85	156	1
TAP	85	324	0
TAP	86	108	7
TAP	86	288	0
TAP	86	288	7
TAP	87	0	0
TAP	87	0	7
TAP	87	96	0
TAP	87	96	7
TAP	87	192	1
TAP	87	192	6
TAP	87	288	1
TAP	87	288	6
TAP	88	0	1
TAP	88	0	6
TAP	88	96	2
TAP	88	192	3
TAP	88	288	2
TAP	89	0	5
TAP	89	96	4
TAP	89	192	5
HLD	89	288	6	288
TAP	90	192	7
TAP	91	96	5
TAP	91	192	4
TAP	91	288	5
TAP	92	0	2
TAP	92	96	3
TAP	92	192	2
HLD	92	288	1	288
TAP	93	192	0
TAP	94	96	6
TAP	94	192	7
TAP	94	288	6
TAP	95	0	1
TAP	95	96	0
TAP	95	192	1
HLD	95	288	7	288
TAP	96	192	0
TAP	97	96	1
TAP	97	192	0
TAP	97	288	1
TAP	98	0	6
TAP	98	96	7
TAP	98	192	6
TAP	98	288	4
TAP	98	288	5
TAP	99	48	2
TAP	99	48	3
TAP	99	192	0
TAP	99	192	1
TAP	99	336	6
TAP	99	336	7
TAP	100	96	5
TAP	100	192	4
TAP	100	288	5
TAP	101	0	2
TAP	101	96	3
TAP	101	192	2
TAP	101	288	5
TAP	102	0	4
TAP	102	96	3
TAP	102	192	2
TAP	102	288	3
TAP	103	0	4
TAP	103	96	5
TAP	103	192	3
TAP	103	288	5
TAP	104	0	2
TAP	104	96	4
TAP	104	192	2
TAP	104	288	6
TAP	105	0	5
TAP	105	96	4
TAP	105	192	1
TAP	105	288	2
TAP	106	0	3
TAP	106	96	6
TAP	106	192	4
TAP	106	288	6
TAP	107	0	1
TAP	107	96	3
TAP	107	192	1
TAP	107	288	7
TAP	108	0	6
TAP	108	96	5
TAP	108	192	0
TAP	108	288	1
TAP	109	0	2
TAP	109	96	6
TAP	109	192	3
TAP	109	288	6
TAP	110	0	1
TAP	110	96	4
TAP	110	192	1
TAP	110	288	6
TAP	111	0	7
TAP	111	96	6
TAP	111	192	1
TAP	111	288	0
TAP	112	0	1
TAP	112	96	7
TAP	112	192	7
TAP	112	288	7
TAP	113	0	0
TAP	113	96	0
TAP	113	192	0
TAP	113	288	7
TAP	113	336	7
TAP	114	48	1
TAP	114	96	1
TAP	114	192	5
TAP	114	240	5
TAP	114	336	3
TAP	115	0	3
STR	115	96	7
SI_	115	96	7	96	192	4
STR	116	0	0
SI_	116	0	0	96	192	3
TAP	116	288	7
BRK	117	192	1
BRK	117	192	6
BRK	117	288	1
BRK	117	288	6
TAP	118	96	5
TAP	118	240	6
TAP	118	240	7
TAP	118	336	6
TAP	118	336	7
TAP	119	48	0
TAP	119	192	1
TAP	119	336	2
TAP	119	336	3
TAP	120	48	2
TAP	120	48	3
TAP	120	144	4
TAP	120	288	3
TAP	121	48	1
TAP	121	48	6
TAP	121	144	1
TAP	121	144	6
TAP	121	240	1
TAP	121	240	6
TAP	122	48	2
TAP	122	48	7
TAP	122	240	0
TAP	122	240	5
TAP	123	48	4
TAP	123	96	4
TAP	123	192	2
TAP	123	240	2
TAP	123	336	5
TAP	124	0	5
TAP	124	96	1
TAP	124	144	1
TAP	124	240	6
TAP	124	288	6
TAP	125	0	0
TAP	125	0	7
TAP	125	48	0
TAP	125	48	7
TAP	125	144	6
TAP	125	240	5
TAP	125	336	4
TAP	126	48	3
TAP	126	144	2
TAP	126	240	1
STR	126	336	0
SSL	126	336	0	96	672	4

T_REC_TAP	426
T_REC_BRK	14
T_REC_XTP	0
T_REC_HLD	7
T_REC_XHO	0
T_REC_STR	10
T_REC_BST	0
T_REC_XST	0
T_REC_TTP	0
T_REC_THO	0
T_REC_SLD	10
T_REC_ALL	467
T_NUM_TAP	436
T_NUM_BRK	14
T_NUM_HLD	7
T_NUM_SLD	10
T_NUM_ALL	467
T_JUDGE_TAP	450
T_JUDGE_HLD	33
T_JUDGE_SLD	10
T_JUDGE_ALL	493
TTM_EACHPAIRS	70
TTM_SCR_TAP	218000
TTM_SCR_BRK	36400
TTM_SCR_HLD	7000
TTM_SCR_SLD	15000
TTM_SCR_ALL	276400
TTM_SCR_S	266750
TTM_SCR_SS	275000
TTM_RAT_ACV	10050

