VERSION	0.00.00	1.03.00
FES_MODE	0
BPM_DEF	210.000	210.000	240.000	210.000
MET_DEF	4	4
RESOLUTION	384
CLK_DEF	480
COMPATIBLE_CODE	MA2

BPM	0	0	210.000
BPM	51	240	228.000
BPM	68	0	240.000
BPM	115	96	210.000
MET	0	0	4	5

HLD	1	96	0	480
HLD	3	288	0	480
HLD	6	288	7	480
HLD	9	96	7	480
TAP	12	96	0
TAP	12	96	7
TAP	13	0	0
TAP	13	0	7
TAP	13	288	0
TAP	13	288	7
TAP	14	192	0
TAP	14	288	0
HLD	16	48	0	240
HLD	17	144	0	240
TAP	18	240	1
TAP	19	48	1
TAP	19	240	1
HLD	20	48	2	240
HLD	21	144	2	240
HLD	22	240	2	240
TAP	23	336	3
TAP	24	144	3
TAP	24	336	3
TAP	25	144	3
TAP	25	144	4
TAP	25	288	3
TAP	25	288	4
TAP	26	48	3
TAP	26	48	4
TAP	26	192	3
TAP	26	192	4
TAP	26	336	5
TAP	27	240	4
TAP	28	144	3
TAP	29	48	2
TAP	29	336	2
TAP	30	240	3
TAP	31	144	4
BRK	32	48	5
TAP	32	336	6
TAP	33	240	4
TAP	34	144	3
TAP	35	48	1
TAP	35	336	1
TAP	36	240	3
TAP	37	144	4
BRK	38	48	6
STR	38	336	7
SI_	38	336	7	96	480	3
TAP	41	336	2
TAP	42	240	3
TAP	43	144	4
TAP	43	240	4
HLD	45	0	5	240
HLD	46	96	5	240
TAP	47	192	6
TAP	48	0	6
TAP	48	192	6
TAP	49	0	0
TAP	49	0	7
TAP	49	144	0
TAP	49	144	7
TAP	49	288	0
TAP	49	288	7
TAP	50	48	0
TAP	50	48	7
TAP	50	192	0
TAP	50	192	7
TAP	50	336	0
TAP	50	336	7
TAP	51	96	0
TAP	51	96	7
STR	51	240	0
SI_	51	240	0	96	384	4
STR	54	48	7
SI_	54	48	7	96	480	3
STR	56	240	1
SI_	56	240	1	96	384	4
STR	59	48	6
SI_	59	48	6	96	480	3
TAP	61	240	0
TAP	62	144	0
TAP	63	48	7
TAP	63	336	7
TAP	64	240	0
TAP	65	144	1
BRK	66	48	2
BRK	66	48	3
HLD	68	0	3	384
HLD	68	0	5	384
TAP	70	0	4
TAP	71	0	3
HLD	72	0	2	384
HLD	72	0	4	384
TAP	74	0	3
TAP	75	0	4
HLD	76	0	5	288
TAP	77	0	5
HLD	78	0	6	288
TAP	79	0	6
HLD	80	0	7	288
TAP	81	0	7
HLD	82	0	0	288
TAP	83	0	0
HLD	84	0	1	1056
HLD	84	0	6	1056
TAP	88	96	2
TAP	89	0	3
TAP	89	288	4
TAP	90	192	4
TAP	90	192	5
TAP	91	96	5
TAP	92	0	4
TAP	92	288	3
BRK	93	192	2
BRK	93	192	3
TAP	94	96	2
TAP	95	0	3
TAP	95	288	4
TAP	96	192	3
TAP	96	192	5
TAP	97	96	5
TAP	98	0	4
TAP	98	288	3
BRK	99	192	2
BRK	99	192	4
TAP	100	96	2
TAP	100	96	3
TAP	101	0	4
TAP	101	0	5
TAP	101	288	6
TAP	101	288	7
TAP	102	192	6
TAP	102	192	7
TAP	103	96	4
TAP	103	96	5
TAP	104	0	2
TAP	104	0	3
TAP	104	288	0
TAP	104	288	1
TAP	105	192	0
TAP	105	192	1
TAP	106	96	2
TAP	106	96	3
TAP	107	0	4
TAP	107	0	5
TAP	107	288	6
TAP	107	288	7
TAP	108	192	0
TAP	108	192	7
TAP	109	96	4
TAP	109	96	5
TAP	110	0	2
TAP	110	0	3
TAP	110	288	0
TAP	110	288	1
TAP	111	192	0
TAP	111	192	7
TAP	112	96	0
TAP	112	96	7
TAP	113	0	0
TAP	113	0	7
BRK	113	288	1
BRK	113	288	6
TAP	115	96	0
TAP	115	96	1
TAP	116	0	2
TAP	116	0	3
TAP	116	288	4
TAP	116	288	5
TAP	117	192	6
TAP	117	288	6
HLD	119	48	4	240
HLD	120	144	3	240
TAP	121	240	2
TAP	122	48	2
TAP	122	240	2
TAP	123	48	0
TAP	123	48	1
TAP	123	192	0
TAP	123	192	1
TAP	123	336	0
TAP	123	336	1
TAP	124	96	6
TAP	124	96	7
TAP	124	240	6
TAP	124	240	7
TAP	125	0	6
TAP	125	0	7
HLD	125	144	0	624
HLD	125	144	7	624

T_REC_TAP	146
T_REC_BRK	10
T_REC_XTP	0
T_REC_HLD	25
T_REC_XHO	0
T_REC_STR	5
T_REC_BST	0
T_REC_XST	0
T_REC_TTP	0
T_REC_THO	0
T_REC_SLD	5
T_REC_ALL	191
T_NUM_TAP	151
T_NUM_BRK	10
T_NUM_HLD	25
T_NUM_SLD	5
T_NUM_ALL	191
T_JUDGE_TAP	161
T_JUDGE_HLD	161
T_JUDGE_SLD	5
T_JUDGE_ALL	327
TTM_EACHPAIRS	51
TTM_SCR_TAP	75500
TTM_SCR_BRK	26000
TTM_SCR_HLD	25000
TTM_SCR_SLD	7500
TTM_SCR_ALL	134000
TTM_SCR_S	129050
TTM_SCR_SS	133000
TTM_RAT_ACV	10075

