VERSION	0.00.00	1.03.00
FES_MODE	0
BPM_DEF	133.000	133.000	133.000	133.000
MET_DEF	4	4
RESOLUTION	384
CLK_DEF	384
COMPATIBLE_CODE	MA2

BPM	0	0	133.000
MET	0	0	4	4

HLD	3	0	0	288
HLD	3	0	2	288
HLD	4	0	6	288
HLD	4	0	7	288
HLD	5	0	0	96
HLD	5	0	3	96
HLD	5	192	1	96
HLD	5	192	5	96
HLD	6	0	2	288
HLD	6	0	7	288
HLD	7	0	0	288
HLD	7	0	2	288
HLD	8	0	6	288
HLD	8	0	7	288
HLD	9	0	0	96
HLD	9	0	3	96
HLD	9	192	1	96
HLD	9	192	5	96
HLD	10	0	2	288
HLD	10	0	7	288
TAP	11	0	6
TAP	11	96	0
TAP	11	192	6
TAP	11	288	1
TAP	12	0	7
TAP	12	96	1
TAP	12	192	6
TAP	12	288	0
BRK	13	0	6
TAP	13	192	1
TAP	13	288	1
TAP	14	0	6
TAP	14	96	5
TAP	14	192	6
TAP	14	288	5
BRK	15	0	1
TAP	15	192	1
TAP	15	192	4
TAP	15	288	3
TAP	15	288	6
TAP	16	0	3
TAP	16	0	6
TAP	16	96	1
TAP	16	96	4
TAP	16	192	1
TAP	16	192	4
TAP	16	288	3
TAP	16	288	6
HLD	17	0	3	96
HLD	17	0	4	96
TAP	17	192	1
TAP	17	288	6
TAP	18	0	0
TAP	18	0	6
TAP	18	96	1
TAP	18	96	7
TAP	18	192	0
TAP	18	192	6
TAP	18	288	1
TAP	18	288	7
BRK	19	0	6
BRK	19	96	6
BRK	19	192	6
HLD	19	288	2	384
HLD	19	288	5	384
TAP	21	0	0
TAP	21	0	2
TAP	21	96	0
TAP	21	96	2
TAP	21	192	5
TAP	21	192	7
TAP	21	288	5
TAP	21	288	7
TAP	22	0	0
TAP	22	0	2
TAP	22	96	0
TAP	22	96	2
TAP	22	192	5
TAP	22	192	7
TAP	22	288	5
TAP	22	288	7
TAP	23	0	0
TAP	23	0	2
TAP	23	96	4
TAP	23	192	5
TAP	23	192	7
TAP	23	288	3
TAP	24	0	0
TAP	24	0	2
TAP	24	96	4
TAP	24	192	5
TAP	24	192	7
TAP	24	288	3
STR	25	0	0
SI_	25	0	0	96	72	6
STR	25	192	0
SI_	25	192	0	96	72	3
STR	26	0	5
SI_	26	0	5	96	96	2
TAP	27	0	3
TAP	27	96	4
TAP	27	192	3
TAP	27	288	4
HLD	28	0	1	72
HLD	28	0	6	72
BRK	28	144	0
BRK	28	144	7
TAP	29	0	0
TAP	29	0	2
TAP	29	96	0
TAP	29	96	2
TAP	29	192	5
TAP	29	192	7
TAP	29	288	5
TAP	29	288	7
TAP	30	0	0
TAP	30	0	2
TAP	30	96	0
TAP	30	96	2
TAP	30	192	5
TAP	30	192	7
TAP	30	288	5
TAP	30	288	7
TAP	31	0	0
TAP	31	0	2
TAP	31	96	4
TAP	31	192	5
TAP	31	192	7
TAP	31	288	3
TAP	32	0	0
TAP	32	0	2
TAP	32	96	4
TAP	32	192	5
TAP	32	192	7
TAP	32	288	3
TAP	33	0	6
TAP	33	96	5
TAP	33	96	7
TAP	33	192	1
TAP	33	288	0
TAP	33	288	2
HLD	34	0	3	96
HLD	34	0	4	96
HLD	34	144	1	144
HLD	34	144	6	144
STR	35	0	1
SI_	35	0	1	96	96	6
TAP	35	288	3
TAP	35	288	4
BRK	36	48	1
BRK	36	48	6
STR	36	288	1
SXL	36	288	1	96	240	4
BRK	38	0	2
BRK	38	0	5
BRK	38	96	2
BRK	38	96	5
STR	38	288	5
SI_	38	288	5	96	48	2
STR	38	288	6
SI_	38	288	6	96	48	1
TAP	39	192	1
TAP	39	288	1
STR	40	0	1
SI_	40	0	1	96	144	6
TAP	41	0	2
TAP	41	24	3
TAP	41	48	2
TAP	41	72	3
TAP	41	96	2
TAP	41	192	5
TAP	41	216	4
TAP	41	240	5
TAP	41	264	4
TAP	41	288	5
TAP	42	0	2
TAP	42	24	3
TAP	42	48	2
TAP	42	72	3
TAP	42	96	2
TAP	42	192	5
TAP	42	216	4
TAP	42	240	5
TAP	42	264	4
TAP	42	288	5
STR	43	0	2
SCR	43	0	2	96	72	5
STR	43	192	6
SCR	43	192	6	96	72	1
TAP	44	0	3
TAP	44	96	4
TAP	44	192	3
TAP	44	288	4
BRK	45	0	1
BRK	45	96	1
BRK	45	192	1
BRK	45	288	1
HLD	46	0	7	288
BRK	46	288	0
TAP	47	0	1
TAP	47	0	7
TAP	47	96	0
TAP	47	96	2
TAP	47	192	0
TAP	47	192	6
TAP	47	288	5
TAP	47	288	7
TAP	48	0	1
TAP	48	0	7
TAP	48	96	0
TAP	48	96	2
TAP	48	192	1
TAP	48	192	6
TAP	48	288	5
TAP	48	288	7
TAP	49	0	0
TAP	49	0	2
TAP	49	96	4
TAP	49	96	5
TAP	49	192	5
TAP	49	192	7
TAP	49	288	2
TAP	49	288	3
TAP	50	0	0
TAP	50	0	2
TAP	50	96	4
TAP	50	96	5
TAP	50	192	5
TAP	50	192	7
TAP	50	288	2
TAP	50	288	3
TAP	51	0	4
TAP	51	0	5
TAP	51	96	2
TAP	51	96	3
TAP	51	192	0
TAP	51	192	1
TAP	51	288	6
TAP	51	288	7
TAP	52	0	4
TAP	52	0	5
TAP	52	96	3
TAP	52	96	4
TAP	52	192	2
TAP	52	192	5
STR	53	0	5
SCL	53	0	5	96	48	3
STR	53	192	1
SCL	53	192	1	96	48	7
HLD	54	0	2	72
HLD	54	0	5	72
BRK	54	144	1
BRK	54	144	6
TAP	55	0	1
TAP	55	0	7
TAP	55	96	0
TAP	55	96	2
TAP	55	192	0
TAP	55	192	6
TAP	55	288	5
TAP	55	288	7
TAP	56	0	1
TAP	56	0	7
TAP	56	96	0
TAP	56	96	2
TAP	56	192	1
TAP	56	192	6
TAP	56	288	5
TAP	56	288	7
TAP	57	0	0
TAP	57	0	2
TAP	57	96	4
TAP	57	96	5
TAP	57	192	5
TAP	57	192	7
TAP	57	288	2
TAP	57	288	3
TAP	58	0	0
TAP	58	0	2
TAP	58	96	4
TAP	58	96	5
TAP	58	192	5
TAP	58	192	7
TAP	58	288	2
TAP	58	288	3
TAP	59	0	1
TAP	59	96	0
TAP	59	96	2
TAP	59	192	6
TAP	59	288	5
TAP	59	288	7
HLD	60	0	3	72
HLD	60	0	4	72
HLD	60	144	1	144
HLD	60	144	6	144
STR	61	0	0
SI_	61	0	0	96	48	5
STR	61	192	7
SI_	61	192	7	96	48	2
BRK	62	48	1
BRK	62	48	6
HLD	63	0	0	288
HLD	63	0	2	288
HLD	64	0	6	288
HLD	64	0	7	288
HLD	65	0	0	96
HLD	65	0	3	96
HLD	65	192	1	96
HLD	65	192	5	96
HLD	66	0	2	288
HLD	66	0	7	288
HLD	67	0	0	288
HLD	67	0	2	288
HLD	68	0	6	288
HLD	68	0	7	288
HLD	69	0	0	96
HLD	69	0	3	96
HLD	69	192	1	96
HLD	69	192	5	96
HLD	70	0	2	288
HLD	70	0	7	288
STR	71	0	1
SXR	71	0	1	96	192	3

T_REC_TAP	214
T_REC_BRK	22
T_REC_XTP	0
T_REC_HLD	57
T_REC_XHO	0
T_REC_STR	15
T_REC_BST	0
T_REC_XST	0
T_REC_TTP	0
T_REC_THO	0
T_REC_SLD	15
T_REC_ALL	323
T_NUM_TAP	229
T_NUM_BRK	22
T_NUM_HLD	57
T_NUM_SLD	15
T_NUM_ALL	323
T_JUDGE_TAP	251
T_JUDGE_HLD	230
T_JUDGE_SLD	15
T_JUDGE_ALL	496
TTM_EACHPAIRS	113
TTM_SCR_TAP	114500
TTM_SCR_BRK	57200
TTM_SCR_HLD	57000
TTM_SCR_SLD	22500
TTM_SCR_ALL	251200
TTM_SCR_S	241550
TTM_SCR_SS	249000
TTM_RAT_ACV	10088

