VERSION	0.00.00	1.03.00
FES_MODE	0
BPM_DEF	133.000	133.000	133.000	133.000
MET_DEF	4	4
RESOLUTION	384
CLK_DEF	384
COMPATIBLE_CODE	MA2

BPM	0	0	133.000
MET	0	0	4	4

HLD	3	0	0	192
HLD	4	0	7	192
TAP	5	0	0
TAP	5	0	2
TAP	5	192	1
TAP	5	192	5
HLD	6	0	2	192
HLD	6	0	7	192
HLD	7	0	0	192
HLD	8	0	7	192
TAP	9	0	0
TAP	9	0	2
TAP	9	192	1
TAP	9	192	5
HLD	10	0	2	192
HLD	10	0	7	192
TAP	11	0	0
TAP	11	96	0
HLD	11	192	0	96
TAP	12	0	2
TAP	12	96	2
HLD	12	192	2	96
TAP	13	0	4
TAP	13	96	4
HLD	13	192	4	96
TAP	14	0	6
TAP	14	96	6
HLD	14	192	6	96
TAP	15	0	4
TAP	15	96	4
TAP	15	96	5
TAP	15	192	3
TAP	15	288	2
TAP	15	288	3
TAP	16	0	4
TAP	16	96	4
TAP	16	96	5
TAP	16	192	3
TAP	16	288	2
TAP	16	288	3
TAP	17	0	3
TAP	17	96	4
TAP	17	192	6
TAP	17	288	1
HLD	18	0	6	96
HLD	18	192	6	96
TAP	19	0	7
TAP	19	96	7
TAP	19	192	7
BRK	19	288	7
TAP	21	0	6
TAP	21	96	6
TAP	21	192	1
TAP	21	288	1
TAP	22	0	7
TAP	22	96	7
TAP	22	192	0
TAP	22	288	0
TAP	23	0	6
TAP	23	96	6
TAP	23	192	1
TAP	23	288	1
TAP	24	0	7
TAP	24	96	7
TAP	24	192	0
TAP	24	288	0
TAP	25	0	2
TAP	25	96	3
TAP	25	192	4
TAP	25	288	5
TAP	26	0	6
TAP	26	96	6
HLD	26	192	6	96
TAP	27	0	3
TAP	27	96	4
TAP	27	192	3
TAP	27	288	4
HLD	28	0	2	192
HLD	28	0	5	192
TAP	29	0	6
TAP	29	96	6
TAP	29	192	0
TAP	29	288	0
TAP	30	0	7
TAP	30	96	7
TAP	30	192	1
TAP	30	288	1
TAP	31	0	7
TAP	31	96	7
TAP	31	192	0
TAP	31	288	0
TAP	32	0	6
TAP	32	96	6
TAP	32	192	1
TAP	32	288	1
TAP	33	0	5
TAP	33	96	4
TAP	33	192	3
TAP	33	288	2
HLD	34	0	7	288
HLD	34	144	0	144
STR	35	0	1
SI_	35	0	1	96	96	6
STR	36	0	4
SI_	36	0	4	96	96	7
TAP	37	192	2
TAP	37	288	5
TAP	38	0	3
TAP	38	0	4
HLD	38	96	3	192
HLD	38	96	4	192
BRK	39	0	2
TAP	39	192	5
TAP	39	288	6
TAP	40	0	7
TAP	40	96	0
TAP	40	192	1
TAP	40	288	2
TAP	41	0	3
TAP	41	96	4
TAP	41	96	5
TAP	41	192	4
TAP	41	288	2
TAP	41	288	3
TAP	42	0	3
TAP	42	96	4
TAP	42	96	5
TAP	42	192	4
TAP	42	288	2
TAP	42	288	3
TAP	43	0	3
TAP	43	96	4
TAP	43	192	3
TAP	43	288	4
HLD	44	0	1	96
HLD	44	192	1	96
TAP	45	0	0
TAP	45	96	0
TAP	45	192	0
BRK	45	288	0
TAP	47	0	7
TAP	47	96	6
TAP	47	192	0
TAP	47	288	1
TAP	48	0	7
TAP	48	96	6
TAP	48	192	0
TAP	48	288	1
TAP	49	0	7
TAP	49	96	6
TAP	49	96	7
TAP	49	192	0
TAP	49	288	0
TAP	49	288	1
TAP	50	0	7
TAP	50	96	6
TAP	50	96	7
TAP	50	192	0
TAP	50	288	0
TAP	50	288	1
STR	51	0	5
SI_	51	0	5	96	96	2
TAP	52	0	5
TAP	52	96	2
TAP	52	192	2
TAP	52	192	5
TAP	53	0	3
TAP	53	96	4
TAP	53	192	3
TAP	53	288	4
HLD	54	0	2	192
HLD	54	0	5	192
TAP	55	0	6
TAP	55	96	7
TAP	55	192	1
TAP	55	288	0
TAP	56	0	6
TAP	56	96	7
TAP	56	192	1
TAP	56	288	0
TAP	57	0	4
TAP	57	96	0
TAP	57	96	6
TAP	57	192	3
TAP	57	288	1
TAP	57	288	7
TAP	58	0	4
TAP	58	96	0
TAP	58	96	6
TAP	58	192	3
TAP	58	288	1
TAP	58	288	7
HLD	59	0	2	192
HLD	59	192	5	192
TAP	60	0	1
TAP	60	96	1
HLD	60	192	1	96
TAP	61	0	3
TAP	61	96	4
TAP	61	192	2
TAP	61	288	5
STR	62	0	3
SI_	62	0	3	96	96	0
STR	62	0	4
SI_	62	0	4	96	96	7
HLD	63	0	0	192
HLD	64	0	7	192
TAP	65	0	0
TAP	65	0	2
TAP	65	192	1
TAP	65	192	5
HLD	66	0	2	192
HLD	66	0	7	192
HLD	67	0	0	192
HLD	68	0	7	192
TAP	69	0	0
TAP	69	0	2
TAP	69	192	1
TAP	69	192	5
HLD	70	0	2	192
HLD	70	0	7	192
TAP	71	144	6
BRK	71	216	5

T_REC_TAP	173
T_REC_BRK	4
T_REC_XTP	0
T_REC_HLD	36
T_REC_XHO	0
T_REC_STR	5
T_REC_BST	0
T_REC_XST	0
T_REC_TTP	0
T_REC_THO	0
T_REC_SLD	5
T_REC_ALL	223
T_NUM_TAP	178
T_NUM_BRK	4
T_NUM_HLD	36
T_NUM_SLD	5
T_NUM_ALL	223
T_JUDGE_TAP	182
T_JUDGE_HLD	125
T_JUDGE_SLD	5
T_JUDGE_ALL	312
TTM_EACHPAIRS	34
TTM_SCR_TAP	89000
TTM_SCR_BRK	10400
TTM_SCR_HLD	36000
TTM_SCR_SLD	7500
TTM_SCR_ALL	142900
TTM_SCR_S	138250
TTM_SCR_SS	142500
TTM_RAT_ACV	10028

