VERSION	0.00.00	1.03.00
FES_MODE	0
BPM_DEF	144.000	144.000	144.000	144.000
MET_DEF	4	4
RESOLUTION	384
CLK_DEF	384
COMPATIBLE_CODE	MA2

BPM	0	0	144.000
MET	0	0	4	4

STR	3	0	0
SI_	3	0	0	96	96	4
STR	3	192	7
SI_	3	192	7	96	96	5
STR	4	0	1
SI_	4	0	1	96	96	3
STR	4	192	6
SI_	4	192	6	96	96	4
STR	5	0	0
SI_	5	0	0	96	96	2
STR	5	192	7
SSR	5	192	7	96	288	3
TAP	6	288	0
TAP	6	336	1
TAP	7	0	2
TAP	7	96	7
TAP	7	144	6
TAP	7	192	5
TAP	7	288	0
TAP	7	336	1
TAP	8	0	2
TAP	8	48	3
TAP	8	96	4
TAP	8	144	5
TAP	8	192	6
TAP	8	288	3
TAP	8	336	2
TAP	9	0	1
TAP	9	96	4
TAP	9	144	5
TAP	9	192	6
TAP	9	288	2
TAP	9	336	3
TAP	10	0	4
TAP	10	96	5
TAP	10	144	4
TAP	10	192	3
HLD	11	0	0	96
TAP	11	96	1
TAP	11	144	2
TAP	11	192	3
TAP	11	288	7
TAP	11	336	6
TAP	12	0	5
TAP	12	48	4
TAP	12	96	3
TAP	12	144	2
TAP	12	192	1
TAP	12	288	4
TAP	12	336	5
TAP	13	0	6
TAP	13	96	3
TAP	13	144	2
TAP	13	192	1
TAP	13	240	0
TAP	13	288	7
TAP	13	336	6
STR	14	0	5
SCR	14	0	5	96	144	2
TAP	14	288	1
TAP	14	288	2
TAP	14	336	2
TAP	14	336	3
TAP	15	0	5
TAP	15	96	5
TAP	15	96	6
TAP	15	144	4
TAP	15	144	5
TAP	15	192	2
TAP	15	288	2
TAP	15	288	3
TAP	15	336	1
TAP	16	0	0
TAP	16	48	6
TAP	16	48	7
TAP	16	96	5
TAP	16	144	4
TAP	16	192	2
TAP	16	192	3
TAP	16	288	6
TAP	16	288	7
TAP	16	336	5
TAP	16	336	6
TAP	17	0	3
TAP	17	96	0
TAP	17	96	1
TAP	17	144	1
TAP	17	144	2
TAP	17	192	4
TAP	17	288	1
TAP	17	288	7
TAP	17	336	0
TAP	17	336	6
TAP	18	0	4
TAP	18	0	5
TAP	18	96	0
TAP	18	96	6
TAP	18	144	1
TAP	18	144	7
TAP	18	192	2
TAP	18	192	3
TAP	19	0	5
TAP	19	0	6
TAP	19	96	1
TAP	19	96	2
TAP	19	144	2
TAP	19	144	3
TAP	19	192	5
TAP	19	288	4
TAP	19	288	5
TAP	19	336	6
TAP	20	0	7
TAP	20	48	0
TAP	20	48	1
TAP	20	96	2
TAP	20	144	3
TAP	20	192	4
TAP	20	192	5
TAP	20	336	0
TAP	20	336	7
TAP	20	360	1
TAP	20	360	6
TAP	21	0	2
TAP	21	0	5
TAP	21	144	1
TAP	21	144	2
TAP	21	192	0
TAP	21	192	3
TAP	21	240	4
TAP	21	240	7
STR	21	288	5
SCL	21	288	5	96	288	2
STR	21	288	6
SCR	21	288	6	96	288	1
TAP	21	336	5
TAP	21	336	6
TAP	23	0	5
TAP	23	48	5
TAP	23	72	4
TAP	23	120	6
TAP	23	168	5
TAP	23	216	2
TAP	23	264	2
TAP	23	288	3
TAP	23	336	1
TAP	23	336	4
TAP	24	0	2
TAP	24	48	2
TAP	24	72	3
TAP	24	120	1
TAP	24	168	2
TAP	24	216	5
TAP	24	264	5
TAP	24	288	4
TAP	24	336	3
TAP	24	336	6
TAP	25	0	5
TAP	25	48	5
TAP	25	72	4
TAP	25	120	6
TAP	25	168	5
TAP	25	216	2
TAP	25	264	2
TAP	25	288	3
TAP	25	336	1
TAP	25	336	4
TAP	26	0	2
TAP	26	48	2
TAP	26	72	3
TAP	26	120	1
TAP	26	168	5
TAP	26	216	5
TAP	26	240	4
TAP	26	288	4
TAP	26	288	6
TAP	26	336	2
TAP	26	336	3
TAP	27	0	1
TAP	27	48	1
TAP	27	72	0
TAP	27	120	2
TAP	27	168	1
TAP	27	216	6
TAP	27	264	6
TAP	27	288	7
TAP	27	336	0
TAP	27	336	5
TAP	28	0	6
TAP	28	48	6
TAP	28	72	7
TAP	28	120	5
TAP	28	168	6
TAP	28	216	1
TAP	28	264	1
TAP	28	288	0
TAP	28	336	2
TAP	28	336	7
TAP	29	0	1
TAP	29	48	1
TAP	29	72	0
TAP	29	120	2
TAP	29	168	1
TAP	29	216	6
TAP	29	264	6
TAP	29	288	7
TAP	29	336	0
TAP	29	336	5
TAP	30	0	6
TAP	30	0	7
TAP	30	72	0
TAP	30	72	1
TAP	30	144	3
TAP	30	144	4
TAP	30	192	1
TAP	30	192	6
TAP	30	240	5
TAP	30	256	4
TAP	30	272	3
TAP	30	288	2
HLD	31	0	5	72
TAP	31	72	4
TAP	31	96	6
TAP	31	144	6
HLD	31	192	2	72
TAP	31	264	3
TAP	31	288	1
TAP	31	336	1
HLD	32	0	5	72
TAP	32	72	4
TAP	32	96	6
TAP	32	144	7
HLD	32	192	2	72
TAP	32	264	3
TAP	32	288	1
TAP	32	336	0
HLD	33	0	5	72
TAP	33	72	4
TAP	33	96	6
TAP	33	144	6
TAP	33	144	7
HLD	33	192	2	72
TAP	33	264	3
TAP	33	288	1
TAP	33	336	0
TAP	33	336	1
STR	34	0	7
SI_	34	0	7	96	48	3
STR	34	96	2
SI_	34	96	2	96	48	0
STR	34	192	6
SI_	34	192	6	96	48	4
HLD	35	0	0	72
TAP	35	72	3
TAP	35	96	1
TAP	35	144	2
HLD	35	192	7	72
TAP	35	264	4
TAP	35	288	6
TAP	35	336	5
HLD	36	0	0	72
TAP	36	72	3
TAP	36	96	1
TAP	36	144	0
TAP	36	144	2
HLD	36	192	7	72
TAP	36	264	4
TAP	36	288	6
TAP	36	336	5
TAP	36	336	7
HLD	37	0	0	72
TAP	37	72	3
TAP	37	96	1
TAP	37	144	2
TAP	37	144	3
HLD	37	192	7	72
TAP	37	264	4
TAP	37	288	6
TAP	37	336	4
TAP	37	336	5
STR	38	0	2
SCL	38	0	2	96	48	0
STR	38	0	5
SCR	38	0	5	96	48	7
STR	38	192	1
SCR	38	192	1	96	48	3
STR	38	192	6
SCL	38	192	6	96	48	4
HLD	39	0	5	72
TAP	39	72	2
TAP	39	96	3
TAP	39	144	1
HLD	39	192	2	72
TAP	39	264	5
TAP	39	288	4
TAP	39	336	6
HLD	40	0	5	72
TAP	40	72	2
TAP	40	96	3
TAP	40	144	1
TAP	40	144	2
HLD	40	192	2	72
TAP	40	264	5
TAP	40	288	4
TAP	40	336	5
TAP	40	336	6
HLD	41	0	5	72
TAP	41	72	2
TAP	41	96	3
TAP	41	144	1
TAP	41	144	3
HLD	41	192	2	72
TAP	41	264	5
TAP	41	288	4
TAP	41	336	4
TAP	41	336	6
STR	42	0	1
SI_	42	0	1	96	48	3
STR	42	0	7
SI_	42	0	7	96	48	5
STR	42	192	0
SI_	42	192	0	96	48	2
STR	42	192	6
SI_	42	192	6	96	48	4
HLD	43	0	1	72
TAP	43	72	5
TAP	43	96	4
TAP	43	144	2
HLD	43	192	6	72
TAP	43	264	2
TAP	43	288	3
TAP	43	336	5
HLD	44	0	1	72
TAP	44	72	5
TAP	44	96	4
TAP	44	144	2
TAP	44	144	3
HLD	44	192	6	72
TAP	44	264	2
TAP	44	288	3
TAP	44	336	4
TAP	44	336	5
HLD	45	0	1	72
TAP	45	72	5
TAP	45	96	4
TAP	45	144	0
TAP	45	144	2
HLD	45	192	6	72
TAP	45	264	2
TAP	45	288	3
TAP	45	336	5
TAP	45	336	7
STR	46	0	3
SI_	46	0	3	96	48	7
STR	46	96	4
SI_	46	96	4	96	48	0
STR	46	192	2
SCR	46	192	2	96	48	5
TAP	47	0	7
TAP	47	48	6
TAP	47	96	5
TAP	47	144	4
TAP	47	192	3
TAP	47	240	1
TAP	47	264	2
TAP	47	288	1
TAP	47	336	2
TAP	47	336	3
TAP	48	0	0
TAP	48	48	1
TAP	48	96	2
TAP	48	144	3
TAP	48	192	4
TAP	48	240	6
TAP	48	264	5
TAP	48	288	6
TAP	48	336	4
TAP	48	336	5
TAP	49	0	6
TAP	49	48	7
TAP	49	96	0
TAP	49	144	1
TAP	49	192	2
TAP	49	240	4
TAP	49	264	3
TAP	49	288	4
TAP	49	336	2
TAP	49	336	5
TAP	50	0	1
TAP	50	48	0
TAP	50	96	7
TAP	50	144	6
TAP	50	192	5
TAP	50	240	3
TAP	50	264	4
TAP	50	288	3
TAP	50	336	1
TAP	50	336	6
TAP	51	0	4
TAP	51	0	5
TAP	51	48	3
TAP	51	96	2
TAP	51	96	3
TAP	51	144	4
TAP	51	192	4
TAP	51	192	5
TAP	51	240	2
TAP	51	264	3
TAP	51	288	2
TAP	51	336	1
TAP	51	336	4
TAP	52	0	2
TAP	52	0	3
TAP	52	48	4
TAP	52	96	4
TAP	52	96	5
TAP	52	144	3
TAP	52	192	2
TAP	52	192	3
TAP	52	240	5
TAP	52	264	4
TAP	52	288	5
TAP	52	336	3
TAP	52	336	6
TAP	53	0	4
TAP	53	0	5
TAP	53	48	6
TAP	53	96	6
TAP	53	96	7
TAP	53	144	1
TAP	53	192	0
TAP	53	192	1
TAP	53	240	2
TAP	53	264	3
TAP	53	288	2
TAP	53	336	2
TAP	53	336	3
TAP	54	0	3
TAP	54	0	4
TAP	54	48	5
TAP	54	72	4
STR	54	96	5
SCL	54	96	5	96	48	3
TAP	54	144	5
STR	54	192	1
SCR	54	192	1	96	48	5
STR	54	288	6
SUL	54	288	6	96	192	1
STR	55	288	2
SCR	55	288	2	96	48	4
STR	55	288	7
SCL	55	288	7	96	48	5
TAP	55	336	0
TAP	55	336	1
STR	56	96	0
SCR	56	96	0	96	48	2
STR	56	96	5
SCL	56	96	5	96	48	3
TAP	56	144	6
TAP	56	144	7
TAP	56	288	4
TAP	56	288	6
TAP	56	336	5
TAP	57	0	1
TAP	57	0	3
TAP	57	48	2
STR	57	96	1
SCR	57	96	1	96	48	3
STR	57	96	6
SCL	57	96	6	96	48	4
TAP	57	144	0
TAP	57	144	7
TAP	57	288	1
STR	57	288	4
SI_	57	288	4	96	48	1
TAP	57	336	2
TAP	57	336	3
STR	58	96	3
SI_	58	96	3	96	48	6
TAP	58	96	6
TAP	58	144	4
TAP	58	144	5
TAP	58	288	0
TAP	58	288	1
TAP	58	336	0
TAP	58	336	7
TAP	59	0	6
TAP	59	0	7
TAP	59	72	4
STR	59	96	5
SCL	59	96	5	96	96	2
TAP	59	144	5
TAP	60	0	4
TAP	60	0	6
TAP	60	96	1
TAP	60	96	3
TAP	60	144	2
TAP	60	192	3
TAP	60	288	5
TAP	60	288	7
TAP	60	336	6
TAP	61	0	0
TAP	61	0	2
TAP	61	48	1
STR	61	96	2
SCL	61	96	2	96	48	0
STR	61	96	5
SCR	61	96	5	96	48	7
TAP	61	144	3
TAP	61	144	4
STR	61	288	5
SCL	61	288	5	96	48	3
TAP	61	336	6
STR	62	96	2
SCR	62	96	2	96	48	4
TAP	62	144	1
STR	62	288	0
SCL	62	288	0	96	192	4
STR	62	288	7
SCR	62	288	7	96	192	3
TAP	63	288	6
TAP	63	288	7
TAP	63	336	5
TAP	64	0	4
TAP	64	0	5
TAP	64	48	2
TAP	64	72	3
TAP	64	96	2
TAP	64	144	0
TAP	64	144	1
TAP	64	192	2
TAP	64	192	3
TAP	64	240	5
TAP	64	264	4
TAP	64	288	5
TAP	64	336	6
TAP	64	336	7
TAP	65	0	4
TAP	65	0	5
TAP	65	48	2
TAP	65	72	3
TAP	65	96	2
TAP	65	144	0
TAP	65	144	1
TAP	65	192	2
TAP	65	192	3
TAP	65	240	5
TAP	65	264	4
TAP	65	288	5
TAP	65	336	6
TAP	65	336	7
TAP	66	0	0
TAP	66	0	1
TAP	66	48	2
TAP	66	72	3
TAP	66	96	2
TAP	66	144	0
TAP	66	144	1
TAP	66	192	6
TAP	66	192	7
TAP	66	240	5
TAP	66	264	4
TAP	66	288	5
TAP	66	336	6
TAP	66	336	7
TAP	67	0	0
TAP	67	0	1
TAP	67	48	2
TAP	67	72	3
TAP	67	96	2
TAP	67	144	0
TAP	67	144	1
TAP	67	192	6
TAP	67	192	7
BRK	67	240	0
BRK	67	288	0
TAP	68	0	1
TAP	68	0	4
TAP	68	48	2
TAP	68	72	3
TAP	68	96	2
TAP	68	144	2
TAP	68	144	3
TAP	68	192	3
TAP	68	192	6
TAP	68	240	5
TAP	68	264	4
TAP	68	288	5
TAP	68	336	4
TAP	68	336	5
TAP	69	0	0
TAP	69	0	5
TAP	69	48	6
TAP	69	72	7
TAP	69	96	6
TAP	69	144	6
TAP	69	144	7
TAP	69	192	2
TAP	69	192	7
TAP	69	240	1
TAP	69	264	0
TAP	69	288	1
TAP	69	336	6
TAP	69	360	7
TAP	70	0	6
STR	70	144	5
SI_	70	144	5	96	48	1
TAP	70	168	4
TAP	70	192	5
STR	70	288	2
SI_	70	288	2	96	192	6
TAP	70	336	2
TAP	71	336	1
TAP	71	360	0
TAP	72	0	2
STR	72	144	2
SI_	72	144	2	96	48	6
TAP	72	168	3
TAP	72	192	2
STR	72	288	5
SI_	72	288	5	96	192	1
TAP	72	336	5
HLD	74	0	0	336
HLD	74	0	7	336
BRK	75	0	1
BRK	75	0	6
TAP	76	0	0
TAP	76	0	5
TAP	76	48	6
TAP	76	72	7
TAP	76	120	0
TAP	76	120	1
TAP	76	168	2
TAP	76	168	7
TAP	76	216	0
TAP	76	216	1
TAP	76	264	2
TAP	76	288	3
TAP	76	336	3
TAP	77	0	2
TAP	77	0	7
TAP	77	48	1
TAP	77	72	0
TAP	77	120	6
TAP	77	120	7
TAP	77	168	0
TAP	77	168	5
TAP	77	216	6
TAP	77	216	7
TAP	77	264	5
TAP	77	288	4
TAP	77	336	4
TAP	78	0	3
TAP	78	0	6
TAP	78	48	5
TAP	78	72	4
TAP	78	120	2
TAP	78	120	3
TAP	78	168	1
TAP	78	168	4
TAP	78	216	2
TAP	78	216	3
TAP	78	264	1
TAP	78	288	0
TAP	78	336	0
TAP	79	0	1
TAP	79	0	4
TAP	79	48	2
TAP	79	72	3
TAP	79	120	4
TAP	79	120	5
TAP	79	168	3
TAP	79	168	6
TAP	79	216	4
TAP	79	216	5
TAP	79	264	6
TAP	79	288	7
TAP	79	336	7
TAP	80	0	1
TAP	80	0	6
TAP	80	48	2
TAP	80	72	3
TAP	80	120	3
TAP	80	120	4
TAP	80	168	2
TAP	80	168	5
TAP	80	216	3
TAP	80	216	4
TAP	80	264	5
TAP	80	288	4
TAP	80	336	3
TAP	80	336	4
TAP	81	0	2
TAP	81	0	5
TAP	81	72	0
TAP	81	72	5
TAP	81	144	2
TAP	81	144	7
BRK	81	192	1
BRK	81	192	6
STR	82	72	0
SI_	82	72	0	96	48	4
TAP	82	84	7
TAP	82	96	0
STR	82	348	7
SUR	82	348	7	96	180	2
STR	83	336	0
SCL	83	336	0	96	156	5
STR	83	336	7
SCR	83	336	7	96	156	2
STR	84	282	0
SSL	84	282	0	96	150	4
TAP	85	210	0
TAP	85	210	6
TAP	85	252	1
TAP	85	252	7
TAP	86	18	1
TAP	86	18	7
TAP	86	60	0
TAP	86	60	6

T_REC_TAP	586
T_REC_BRK	6
T_REC_XTP	0
T_REC_HLD	27
T_REC_XHO	0
T_REC_STR	50
T_REC_BST	0
T_REC_XST	0
T_REC_TTP	0
T_REC_THO	0
T_REC_SLD	50
T_REC_ALL	719
T_NUM_TAP	636
T_NUM_BRK	6
T_NUM_HLD	27
T_NUM_SLD	50
T_NUM_ALL	719
T_JUDGE_TAP	642
T_JUDGE_HLD	64
T_JUDGE_SLD	50
T_JUDGE_ALL	756
TTM_EACHPAIRS	155
TTM_SCR_TAP	318000
TTM_SCR_BRK	15600
TTM_SCR_HLD	27000
TTM_SCR_SLD	75000
TTM_SCR_ALL	435600
TTM_SCR_S	421950
TTM_SCR_SS	435000
TTM_RAT_ACV	10013

