VERSION	0.00.00	1.03.00
FES_MODE	0
BPM_DEF	144.000	144.000	144.000	144.000
MET_DEF	4	4
RESOLUTION	384
CLK_DEF	384
COMPATIBLE_CODE	MA2

BPM	0	0	144.000
MET	0	0	4	4

HLD	3	0	0	192
HLD	3	192	7	192
HLD	4	0	1	192
HLD	4	192	6	192
STR	5	0	2
SCL	5	0	2	96	384	5
TAP	7	0	0
TAP	7	0	1
TAP	7	192	2
TAP	7	192	7
STR	8	0	4
SI_	8	0	4	96	48	6
STR	8	96	7
SI_	8	96	7	96	48	3
TAP	9	0	6
TAP	9	0	7
TAP	9	192	0
TAP	9	192	5
TAP	10	0	0
TAP	10	0	1
STR	10	96	1
SCR	10	96	1	96	96	4
STR	10	96	5
SCR	10	96	5	96	96	0
TAP	11	0	2
TAP	11	0	3
TAP	11	192	4
TAP	11	192	5
TAP	12	0	0
TAP	12	0	2
TAP	12	96	0
TAP	12	96	6
TAP	12	192	4
TAP	12	192	6
STR	13	0	6
SCR	13	0	6	96	48	0
STR	13	192	1
SCL	13	192	1	96	48	7
STR	14	0	5
SCR	14	0	5	96	96	0
TAP	14	288	2
TAP	14	336	3
TAP	15	0	4
TAP	15	96	5
TAP	15	144	4
TAP	15	192	3
TAP	15	288	2
TAP	15	336	1
TAP	16	0	2
TAP	16	48	0
TAP	16	96	2
TAP	16	144	7
TAP	16	192	0
TAP	16	288	6
TAP	16	336	0
TAP	17	0	4
TAP	17	96	1
TAP	17	144	7
TAP	17	192	3
TAP	17	288	1
TAP	17	288	2
TAP	18	0	2
TAP	18	0	3
TAP	18	96	3
TAP	18	96	4
TAP	18	192	4
TAP	18	192	5
HLD	19	0	5	96
TAP	19	96	4
TAP	19	144	5
TAP	19	192	4
TAP	19	288	2
TAP	19	336	4
TAP	20	0	2
TAP	20	48	4
TAP	20	96	6
TAP	20	144	0
TAP	20	192	7
STR	20	288	4
SI_	20	288	4	96	48	1
STR	20	288	5
SI_	20	288	5	96	48	0
TAP	21	192	0
TAP	21	192	1
TAP	21	288	2
TAP	21	288	7
BRK	22	0	3
BRK	22	0	6
TAP	23	0	1
TAP	23	48	5
TAP	23	72	4
TAP	23	96	5
TAP	23	144	2
TAP	23	192	6
TAP	23	240	2
TAP	23	264	3
TAP	23	288	2
TAP	23	336	5
TAP	24	48	1
TAP	24	96	2
TAP	24	144	1
TAP	24	192	6
TAP	24	240	5
TAP	24	288	6
TAP	24	336	5
TAP	25	0	7
TAP	25	48	1
TAP	25	72	0
TAP	25	96	1
TAP	25	144	7
TAP	25	192	0
TAP	25	240	6
TAP	25	264	7
TAP	25	288	6
TAP	25	336	0
STR	26	0	7
SUL	26	0	7	96	144	3
TAP	27	0	1
TAP	27	48	5
TAP	27	72	4
TAP	27	96	5
TAP	27	144	2
TAP	27	192	6
TAP	27	240	2
TAP	27	264	3
TAP	27	288	2
TAP	27	336	5
TAP	28	48	1
TAP	28	96	2
TAP	28	144	1
TAP	28	192	6
TAP	28	240	5
TAP	28	288	6
TAP	28	336	5
TAP	29	0	7
TAP	29	48	1
TAP	29	72	0
TAP	29	96	1
TAP	29	144	7
TAP	29	192	0
TAP	29	240	6
TAP	29	264	7
TAP	29	288	6
TAP	29	336	0
TAP	30	0	2
TAP	30	0	3
TAP	30	72	2
TAP	30	72	3
TAP	30	144	4
TAP	30	144	5
BRK	30	192	4
BRK	30	192	5
HLD	31	0	6	96
HLD	31	96	7	96
HLD	31	192	0	96
TAP	31	288	1
TAP	32	0	5
TAP	32	48	4
TAP	32	96	3
TAP	32	144	2
STR	32	192	1
SCR	32	192	1	96	48	3
HLD	33	0	6	96
TAP	33	96	4
HLD	33	192	0	96
TAP	33	288	1
TAP	34	0	2
TAP	34	0	3
TAP	34	96	3
TAP	34	96	4
TAP	34	192	4
TAP	34	192	5
HLD	35	0	1	96
HLD	35	96	0	96
HLD	35	192	7	96
TAP	35	288	6
TAP	36	0	2
TAP	36	48	3
TAP	36	96	4
TAP	36	144	5
STR	36	192	6
SCL	36	192	6	96	48	4
HLD	37	0	0	96
HLD	37	96	2	96
HLD	37	192	4	96
TAP	37	288	6
TAP	38	0	4
TAP	38	0	5
TAP	38	96	3
TAP	38	96	4
TAP	38	192	2
TAP	38	192	3
TAP	39	0	0
TAP	39	48	0
TAP	39	96	7
TAP	39	144	7
TAP	39	240	0
TAP	39	288	7
TAP	39	336	0
TAP	40	48	5
TAP	40	96	4
TAP	40	144	3
TAP	40	192	2
TAP	40	288	0
TAP	40	288	7
TAP	41	0	1
TAP	41	0	6
TAP	41	72	4
TAP	41	96	3
TAP	41	144	7
HLD	41	192	1	96
TAP	41	288	2
TAP	41	336	5
STR	42	0	3
SI_	42	0	3	96	48	0
STR	42	96	7
SI_	42	96	7	96	48	4
TAP	43	0	2
TAP	43	48	3
TAP	43	96	2
TAP	43	144	3
TAP	43	240	5
TAP	43	288	4
TAP	43	336	5
TAP	44	48	1
TAP	44	96	6
TAP	44	144	0
TAP	44	192	7
STR	44	288	0
SI_	44	288	0	96	48	4
TAP	44	336	6
STR	45	96	7
SI_	45	96	7	96	48	3
TAP	45	144	1
STR	45	288	3
SI_	45	288	3	96	48	0
TAP	45	336	4
TAP	46	96	5
TAP	46	96	6
TAP	46	192	4
TAP	46	192	5
BRK	46	288	3
BRK	46	288	4
TAP	47	48	0
STR	47	96	0
SI_	47	96	0	96	48	5
TAP	47	144	7
STR	47	192	7
SI_	47	192	7	96	48	2
TAP	48	48	3
STR	48	96	3
SI_	48	96	3	96	48	0
TAP	48	144	4
STR	48	192	4
SI_	48	192	4	96	48	7
TAP	49	48	1
STR	49	96	1
SI_	49	96	1	96	48	3
TAP	49	144	4
STR	49	192	4
SI_	49	192	4	96	48	0
TAP	50	48	1
TAP	50	48	6
TAP	50	96	1
TAP	50	96	6
TAP	50	144	1
TAP	50	144	6
STR	50	192	0
SI_	50	192	0	96	48	4
STR	50	192	7
SI_	50	192	7	96	48	3
TAP	51	48	6
STR	51	96	6
SCL	51	96	6	96	48	3
TAP	51	144	2
STR	51	192	2
SCL	51	192	2	96	48	7
TAP	52	48	1
STR	52	96	1
SCR	52	96	1	96	48	4
TAP	52	144	5
STR	52	192	5
SCR	52	192	5	96	48	0
TAP	53	48	1
STR	53	96	1
SI_	53	96	1	96	48	3
TAP	53	144	4
STR	53	192	4
SI_	53	192	4	96	48	0
TAP	54	0	3
TAP	54	96	2
BRK	54	192	0
BRK	54	192	1
BRK	54	288	0
BRK	54	288	1
BRK	55	0	0
BRK	55	0	1
STR	55	288	7
SCL	55	288	7	96	48	5
TAP	55	336	7
STR	56	96	1
SCR	56	96	1	96	48	3
TAP	56	144	1
TAP	56	288	4
TAP	56	288	5
TAP	56	336	4
TAP	56	336	5
TAP	57	0	5
TAP	57	0	6
TAP	57	48	5
TAP	57	48	6
TAP	57	96	6
TAP	57	96	7
TAP	57	144	6
TAP	57	144	7
BRK	57	192	0
BRK	57	192	7
STR	57	288	6
SI_	57	288	6	96	48	4
STR	58	0	1
SI_	58	0	1	96	48	3
STR	58	96	4
SI_	58	96	4	96	48	7
STR	58	192	3
SI_	58	192	3	96	48	0
TAP	59	0	6
STR	59	96	1
SCR	59	96	1	96	48	4
STR	59	96	5
SCR	59	96	5	96	48	0
TAP	60	0	0
TAP	60	48	1
TAP	60	96	2
TAP	60	144	3
TAP	60	192	7
TAP	60	240	6
TAP	60	288	5
TAP	60	336	4
TAP	61	0	2
TAP	61	48	1
TAP	61	96	0
TAP	61	144	7
BRK	61	192	6
TAP	61	288	4
TAP	61	288	5
TAP	62	0	6
TAP	62	0	7
TAP	62	96	0
TAP	62	96	1
TAP	62	192	2
TAP	62	192	3
STR	62	288	3
SI_	62	288	3	96	48	1
STR	63	0	4
SI_	63	0	4	96	48	6
STR	63	96	3
SI_	63	96	3	96	48	0
STR	63	192	4
SI_	63	192	4	96	48	7
TAP	64	0	1
TAP	64	0	6
TAP	64	96	0
TAP	64	96	4
TAP	64	144	1
TAP	64	144	5
TAP	64	192	2
TAP	64	192	6
TAP	64	288	7
TAP	64	336	3
TAP	65	0	6
TAP	65	48	2
TAP	65	96	5
TAP	65	144	1
TAP	65	192	0
TAP	65	192	4
TAP	65	288	3
TAP	65	336	2
TAP	66	0	1
TAP	66	96	7
TAP	66	144	6
TAP	66	192	5
TAP	66	288	3
TAP	66	336	6
BRK	67	0	0
BRK	67	0	1
BRK	67	96	0
BRK	67	96	1
BRK	67	192	0
BRK	67	192	1
BRK	67	288	0
BRK	67	288	1
TAP	68	0	7
TAP	68	48	0
TAP	68	96	7
TAP	68	144	0
TAP	68	192	6
TAP	68	240	1
TAP	68	288	6
TAP	68	336	1
TAP	69	0	6
TAP	69	48	7
TAP	69	96	6
TAP	69	144	7
BRK	69	192	6
HLD	70	0	1	192
HLD	70	192	3	96
STR	70	288	5
SCR	70	288	5	96	192	0
HLD	72	0	6	192
HLD	72	192	4	96
STR	72	288	2
SCL	72	288	2	96	192	7
STR	73	288	0
SCR	73	288	0	96	192	3
STR	73	288	7
SCL	73	288	7	96	192	4
BRK	75	0	0
BRK	75	0	7
TAP	76	0	6
TAP	76	48	2
TAP	76	72	3
TAP	76	96	2
TAP	76	144	5
TAP	76	192	1
TAP	76	240	5
TAP	76	264	4
TAP	76	288	5
TAP	76	336	2
TAP	77	48	5
TAP	77	96	4
TAP	77	144	5
TAP	77	192	2
TAP	77	240	3
STR	77	288	2
SCL	77	288	2	96	288	5
TAP	77	336	3
TAP	79	0	2
TAP	79	48	6
TAP	79	72	7
TAP	79	96	6
TAP	79	144	1
TAP	79	192	5
TAP	79	240	1
TAP	79	264	0
TAP	79	288	1
TAP	79	336	6
TAP	80	48	2
TAP	80	96	1
TAP	80	144	0
TAP	80	192	5
TAP	80	240	6
TAP	80	288	7
TAP	80	336	0
BRK	81	0	2
BRK	81	0	3
BRK	81	72	4
BRK	81	72	5
BRK	81	144	6
BRK	81	144	7
BRK	81	192	0
BRK	81	192	1
BRK	82	96	0

T_REC_TAP	308
T_REC_BRK	35
T_REC_XTP	0
T_REC_HLD	21
T_REC_XHO	0
T_REC_STR	49
T_REC_BST	0
T_REC_XST	0
T_REC_TTP	0
T_REC_THO	0
T_REC_SLD	49
T_REC_ALL	462
T_NUM_TAP	357
T_NUM_BRK	35
T_NUM_HLD	21
T_NUM_SLD	49
T_NUM_ALL	462
T_JUDGE_TAP	392
T_JUDGE_HLD	54
T_JUDGE_SLD	49
T_JUDGE_ALL	495
TTM_EACHPAIRS	68
TTM_SCR_TAP	178500
TTM_SCR_BRK	91000
TTM_SCR_HLD	21000
TTM_SCR_SLD	73500
TTM_SCR_ALL	364000
TTM_SCR_S	349700
TTM_SCR_SS	360500
TTM_RAT_ACV	10097

