VERSION	0.00.00	1.03.00
FES_MODE	0
BPM_DEF	144.000	144.000	144.000	144.000
MET_DEF	4	4
RESOLUTION	384
CLK_DEF	384
COMPATIBLE_CODE	MA2

BPM	0	0	144.000
MET	0	0	4	4

TAP	3	0	2
TAP	3	192	3
TAP	4	0	4
TAP	4	192	5
STR	5	0	6
SCR	5	0	6	96	288	1
TAP	7	0	1
TAP	7	192	1
TAP	8	0	7
TAP	8	192	6
HLD	9	0	5	192
TAP	9	192	3
HLD	10	0	1	192
TAP	10	192	4
TAP	11	0	6
TAP	11	192	6
TAP	12	0	0
TAP	12	192	1
TAP	13	0	3
STR	13	192	3
SI_	13	192	3	96	288	0
TAP	13	192	4
TAP	15	0	0
TAP	15	96	0
TAP	15	192	6
TAP	15	288	6
TAP	16	0	2
TAP	16	96	2
TAP	16	192	4
TAP	16	192	5
TAP	17	0	5
TAP	17	96	4
TAP	17	192	3
TAP	17	288	2
HLD	18	0	1	192
TAP	18	96	2
TAP	18	192	2
TAP	19	0	7
TAP	19	96	7
TAP	19	192	1
TAP	19	288	1
TAP	20	0	5
TAP	20	96	4
TAP	20	192	3
TAP	21	0	2
TAP	21	0	4
TAP	21	192	3
TAP	21	192	5
TAP	22	0	2
STR	22	0	3
SI_	22	0	3	96	192	7
HLD	23	0	0	288
TAP	24	0	7
TAP	24	192	7
HLD	25	0	7	288
TAP	26	0	5
TAP	26	192	5
HLD	27	0	5	288
TAP	28	0	7
TAP	28	192	7
HLD	29	0	7	288
TAP	29	288	0
TAP	30	0	0
TAP	30	0	7
TAP	30	72	0
TAP	30	72	7
TAP	30	144	0
TAP	30	144	7
BRK	30	192	0
BRK	30	192	7
TAP	31	0	2
TAP	31	96	3
TAP	31	192	4
TAP	31	288	3
TAP	31	288	5
TAP	32	0	5
TAP	32	96	4
TAP	32	192	3
TAP	32	288	2
TAP	32	288	4
STR	33	0	7
SCR	33	0	7	96	192	2
TAP	34	0	0
TAP	34	96	0
TAP	34	192	0
TAP	35	0	2
TAP	35	96	4
TAP	35	192	5
TAP	35	288	3
TAP	35	288	6
TAP	36	0	5
TAP	36	96	3
TAP	36	192	2
TAP	36	288	1
TAP	36	288	4
STR	37	0	6
SI_	37	0	6	96	192	3
TAP	38	0	0
TAP	38	96	0
TAP	38	192	0
TAP	39	0	2
TAP	39	96	2
TAP	39	96	3
TAP	39	192	5
TAP	39	288	4
TAP	39	288	5
TAP	40	0	2
TAP	40	96	1
TAP	40	192	0
TAP	40	192	6
TAP	40	288	0
TAP	40	288	6
STR	41	0	0
SCL	41	0	0	96	192	5
TAP	42	0	7
TAP	42	96	7
TAP	42	192	0
TAP	42	192	7
TAP	43	0	1
TAP	43	48	1
TAP	43	96	1
TAP	43	192	6
TAP	43	240	6
TAP	43	288	6
TAP	44	0	3
TAP	44	48	4
TAP	44	96	3
TAP	44	144	4
TAP	44	192	3
TAP	44	288	4
STR	45	0	3
SCL	45	0	3	96	192	0
BRK	46	0	4
BRK	46	96	5
BRK	46	192	6
BRK	46	288	7
STR	47	0	6
SI_	47	0	6	96	192	3
STR	47	0	7
SI_	47	0	7	96	192	2
STR	48	0	0
SI_	48	0	0	96	192	5
STR	48	0	1
SI_	48	0	1	96	192	4
STR	49	0	6
SCL	49	0	6	96	192	3
STR	49	0	7
SCR	49	0	7	96	192	2
STR	50	0	0
SCL	50	0	0	96	192	5
STR	50	0	1
SCR	50	0	1	96	192	4
TAP	51	0	6
TAP	51	192	3
TAP	51	192	5
TAP	52	0	4
TAP	52	192	1
TAP	52	192	3
HLD	53	0	0	192
HLD	53	192	7	192
HLD	54	0	6	192
TAP	54	192	5
STR	54	288	4
SI_	54	288	4	96	192	1
TAP	56	0	0
TAP	56	96	0
TAP	56	192	6
TAP	56	288	6
TAP	57	0	1
TAP	57	96	3
TAP	57	192	4
HLD	58	0	6	192
TAP	58	96	5
TAP	58	192	5
TAP	58	288	6
HLD	59	0	2	192
TAP	59	96	3
TAP	59	192	3
TAP	60	0	7
TAP	60	96	7
TAP	60	192	1
TAP	60	288	1
TAP	61	0	6
TAP	61	96	4
TAP	61	192	3
TAP	62	0	2
TAP	62	0	4
TAP	62	96	3
TAP	62	96	4
TAP	62	192	3
TAP	62	192	5
STR	62	288	3
SI_	62	288	3	96	192	0
STR	62	288	4
SI_	62	288	4	96	192	7
TAP	64	0	0
TAP	64	0	6
TAP	64	96	0
TAP	64	96	6
TAP	64	192	1
TAP	64	192	7
TAP	64	288	1
TAP	64	288	7
TAP	65	0	2
TAP	65	0	3
TAP	65	96	3
TAP	65	96	4
TAP	65	192	4
TAP	65	192	5
HLD	66	0	5	192
TAP	66	96	4
TAP	66	192	3
TAP	66	288	2
TAP	66	288	5
HLD	67	0	1	192
TAP	67	96	0
TAP	67	192	7
TAP	68	0	2
TAP	68	0	6
TAP	68	96	2
TAP	68	96	6
TAP	68	192	1
TAP	68	192	5
TAP	68	288	1
TAP	68	288	5
TAP	69	0	4
TAP	69	0	5
TAP	69	96	3
TAP	69	96	4
TAP	69	192	2
TAP	69	192	3
TAP	70	0	3
TAP	70	0	7
TAP	70	192	1
TAP	70	192	5
HLD	71	0	2	288
HLD	71	0	6	288
BRK	72	0	0
BRK	72	0	5
BRK	72	192	2
BRK	72	192	7
STR	73	0	4
SI_	73	0	4	96	192	0
STR	74	0	3
SI_	74	0	3	96	192	7
HLD	75	0	0	288
TAP	76	0	0
TAP	76	192	0
TAP	77	0	7
TAP	77	192	7
TAP	78	0	0
TAP	78	0	7
TAP	78	96	0
TAP	78	96	7
TAP	78	192	0
TAP	78	192	6
TAP	79	0	0
TAP	79	0	7
TAP	79	96	0
TAP	79	96	7
TAP	79	192	1
TAP	79	192	7
TAP	80	0	1
TAP	80	96	3
TAP	80	192	5
TAP	80	288	7
TAP	81	0	0
TAP	81	0	7
TAP	81	72	0
TAP	81	72	7
TAP	81	144	0
TAP	81	144	7
STR	81	192	0
SSL	81	192	0	96	192	4
TAP	81	192	7

T_REC_TAP	206
T_REC_BRK	10
T_REC_XTP	0
T_REC_HLD	17
T_REC_XHO	0
T_REC_STR	21
T_REC_BST	0
T_REC_XST	0
T_REC_TTP	0
T_REC_THO	0
T_REC_SLD	21
T_REC_ALL	275
T_NUM_TAP	227
T_NUM_BRK	10
T_NUM_HLD	17
T_NUM_SLD	21
T_NUM_ALL	275
T_JUDGE_TAP	237
T_JUDGE_HLD	82
T_JUDGE_SLD	21
T_JUDGE_ALL	340
TTM_EACHPAIRS	58
TTM_SCR_TAP	113500
TTM_SCR_BRK	26000
TTM_SCR_HLD	17000
TTM_SCR_SLD	31500
TTM_SCR_ALL	188000
TTM_SCR_S	181400
TTM_SCR_SS	187000
TTM_RAT_ACV	10053

