VERSION	0.00.00	1.03.00
FES_MODE	0
BPM_DEF	144.000	144.000	144.000	144.000
MET_DEF	4	4
RESOLUTION	384
CLK_DEF	384
COMPATIBLE_CODE	MA2

BPM	0	0	144.000
MET	0	0	4	4

TAP	7	0	0
TAP	7	192	1
TAP	8	0	0
TAP	8	96	0
TAP	8	192	1
TAP	9	0	2
TAP	9	192	3
TAP	10	0	2
TAP	10	96	2
TAP	10	192	3
TAP	11	0	4
TAP	11	192	5
TAP	12	0	4
TAP	12	96	4
TAP	12	192	5
TAP	13	0	6
TAP	13	192	7
HLD	14	0	0	192
TAP	15	0	0
TAP	15	0	1
TAP	15	192	0
TAP	15	192	1
TAP	16	0	1
TAP	16	96	0
TAP	16	192	1
TAP	17	0	3
TAP	17	0	4
TAP	17	192	3
TAP	17	192	4
TAP	18	0	3
TAP	18	96	4
TAP	18	192	3
TAP	19	0	6
TAP	19	0	7
TAP	19	192	6
TAP	19	192	7
TAP	20	0	7
TAP	20	96	6
TAP	20	192	7
TAP	21	0	0
TAP	21	0	7
TAP	21	192	0
TAP	21	192	7
HLD	22	0	0	384
HLD	22	0	7	384
TAP	27	0	2
TAP	28	0	1
TAP	29	0	0
TAP	29	192	7
TAP	30	0	0
TAP	30	0	7
TAP	30	192	1
TAP	30	192	6
TAP	31	0	0
TAP	31	192	0
TAP	32	0	7
TAP	32	96	7
TAP	32	192	6
HLD	33	0	5	192
TAP	34	0	4
TAP	34	96	4
TAP	34	192	5
TAP	35	0	7
TAP	35	192	7
TAP	36	0	0
TAP	36	96	0
TAP	36	192	1
HLD	37	0	2	192
TAP	38	0	3
TAP	38	96	3
TAP	38	192	2
TAP	39	0	0
TAP	39	0	1
TAP	39	192	0
TAP	39	192	1
TAP	40	0	7
TAP	40	96	7
TAP	40	192	6
HLD	41	0	5	192
TAP	42	0	4
TAP	42	96	4
TAP	42	192	5
TAP	43	0	6
TAP	43	0	7
TAP	43	192	6
TAP	43	192	7
TAP	44	0	0
TAP	44	96	0
TAP	44	192	1
TAP	45	0	2
TAP	45	192	4
TAP	46	0	6
TAP	46	96	6
TAP	46	192	7
TAP	46	288	7
TAP	47	0	0
TAP	47	96	0
TAP	48	0	2
TAP	48	96	2
TAP	49	0	7
TAP	49	96	7
TAP	50	0	5
TAP	50	96	5
TAP	51	0	6
TAP	51	192	5
TAP	52	0	4
TAP	52	192	3
TAP	53	0	2
TAP	53	192	1
TAP	54	0	0
TAP	54	192	0
TAP	54	192	7
TAP	54	288	0
TAP	54	288	7
BRK	55	0	0
BRK	55	0	7
TAP	56	0	0
TAP	56	96	7
TAP	56	192	0
TAP	57	0	0
TAP	57	96	7
TAP	57	192	6
TAP	58	0	5
TAP	58	96	4
TAP	58	192	5
TAP	59	0	5
TAP	59	96	4
TAP	59	192	3
TAP	60	0	2
TAP	60	96	3
TAP	60	192	2
TAP	61	0	2
TAP	61	96	3
TAP	61	192	4
TAP	62	0	3
TAP	62	96	4
STR	62	192	3
SI_	62	192	3	96	288	0
TAP	64	0	6
TAP	64	0	7
TAP	64	192	6
TAP	64	192	7
TAP	65	0	7
TAP	65	96	0
TAP	65	192	1
TAP	66	0	2
TAP	66	0	3
TAP	66	192	2
TAP	66	192	3
TAP	67	0	2
TAP	67	96	3
TAP	67	192	4
TAP	68	0	4
TAP	68	0	5
TAP	68	192	4
TAP	68	192	5
TAP	69	0	5
TAP	69	96	6
TAP	69	192	7
TAP	70	0	0
TAP	70	0	7
TAP	70	192	0
TAP	70	192	7
TAP	71	0	1
TAP	71	0	6
TAP	72	0	0
TAP	72	0	7
TAP	72	192	1
TAP	72	192	6
HLD	73	0	0	1152
HLD	74	0	7	768
TAP	78	0	6
TAP	78	192	5
TAP	79	0	4
TAP	79	192	3
TAP	80	0	2
TAP	80	192	1
TAP	81	0	0
TAP	81	0	7
HLD	81	192	1	288
HLD	81	192	6	288

T_REC_TAP	167
T_REC_BRK	2
T_REC_XTP	0
T_REC_HLD	10
T_REC_XHO	0
T_REC_STR	1
T_REC_BST	0
T_REC_XST	0
T_REC_TTP	0
T_REC_THO	0
T_REC_SLD	1
T_REC_ALL	181
T_NUM_TAP	168
T_NUM_BRK	2
T_NUM_HLD	10
T_NUM_SLD	1
T_NUM_ALL	181
T_JUDGE_TAP	170
T_JUDGE_HLD	84
T_JUDGE_SLD	1
T_JUDGE_ALL	255
TTM_EACHPAIRS	31
TTM_SCR_TAP	84000
TTM_SCR_BRK	5200
TTM_SCR_HLD	10000
TTM_SCR_SLD	1500
TTM_SCR_ALL	100700
TTM_SCR_S	97500
TTM_SCR_SS	100500
TTM_RAT_ACV	10019

