VERSION	0.00.00	1.03.00
FES_MODE	0
BPM_DEF	140.000	140.000	140.000	140.000
MET_DEF	4	4
RESOLUTION	384
CLK_DEF	384
COMPATIBLE_CODE	MA2

BPM	0	0	140.000
MET	0	0	4	4

TAP	1	0	0
TAP	1	24	4
TAP	1	48	1
TAP	1	72	5
TAP	1	96	2
TAP	1	120	6
TAP	1	144	3
TAP	1	168	7
TAP	1	192	0
TAP	1	192	4
TAP	1	240	3
TAP	1	240	7
TAP	1	288	2
TAP	1	288	6
TAP	1	336	1
TAP	1	336	5
BRK	2	0	0
BRK	2	0	4
TAP	2	192	3
TAP	2	192	6
TAP	2	336	3
TAP	3	0	1
TAP	3	0	4
TAP	3	72	1
TAP	3	72	4
TAP	3	192	3
TAP	3	192	6
TAP	3	336	3
TAP	4	0	1
TAP	4	0	4
TAP	4	192	1
TAP	4	192	4
TAP	4	336	4
TAP	5	0	3
TAP	5	0	6
TAP	5	72	3
TAP	5	72	6
TAP	5	192	1
TAP	5	192	4
TAP	5	336	0
TAP	6	0	1
TAP	6	0	4
TAP	6	48	3
TAP	6	96	5
TAP	6	144	4
TAP	6	192	3
TAP	6	192	6
TAP	6	240	4
TAP	6	288	2
TAP	6	336	3
TAP	7	0	1
TAP	7	0	4
TAP	7	48	3
TAP	7	96	5
TAP	7	144	4
TAP	7	192	3
TAP	7	192	6
TAP	7	240	4
TAP	7	288	2
TAP	7	336	3
TAP	8	0	1
TAP	8	0	4
TAP	8	48	2
TAP	8	96	3
TAP	8	96	6
TAP	8	144	5
TAP	8	192	1
TAP	8	192	4
TAP	8	240	2
TAP	8	288	3
TAP	8	288	6
TAP	8	336	5
TAP	9	0	2
TAP	9	48	0
TAP	9	96	7
TAP	9	144	5
BRK	9	192	3
BRK	9	192	4
BRK	9	288	1
BRK	9	288	6
STR	10	0	0
SCL	10	0	0	96	48	5
TAP	10	96	1
STR	10	192	7
SCR	10	192	7	96	48	2
TAP	10	288	6
STR	11	0	0
SCL	11	0	0	96	48	5
TAP	11	96	1
STR	11	192	7
SCR	11	192	7	96	48	2
TAP	11	288	6
STR	12	0	0
SCL	12	0	0	96	48	5
TAP	12	96	1
STR	12	192	7
SCR	12	192	7	96	48	2
TAP	12	288	6
TAP	13	0	0
TAP	13	0	4
TAP	13	48	1
TAP	13	48	5
TAP	13	96	2
TAP	13	96	6
TAP	13	144	3
TAP	13	144	7
STR	13	192	0
SCL	13	192	0	96	48	5
STR	13	192	4
SCL	13	192	4	96	48	1
TAP	14	0	3
STR	14	0	7
SCR	14	0	7	96	48	2
TAP	14	96	6
STR	14	192	0
SCL	14	192	0	96	48	5
TAP	14	192	4
TAP	14	288	1
TAP	15	0	3
STR	15	0	7
SCR	15	0	7	96	48	2
TAP	15	96	6
STR	15	192	0
SCL	15	192	0	96	48	5
TAP	15	192	4
TAP	15	288	1
TAP	16	0	3
STR	16	0	7
SCR	16	0	7	96	48	2
TAP	16	96	6
STR	16	192	0
SCL	16	192	0	96	48	5
TAP	16	192	4
TAP	16	288	1
TAP	17	0	3
TAP	17	0	7
TAP	17	48	2
TAP	17	48	6
TAP	17	96	1
TAP	17	96	5
TAP	17	144	0
TAP	17	144	4
BRK	17	192	3
BRK	17	192	7
STR	17	288	6
SSL	17	288	6	96	48	2
TAP	17	336	6
STR	18	96	1
SSR	18	96	1	96	48	5
TAP	18	144	1
STR	18	288	6
SI_	18	288	6	96	96	1
TAP	18	336	6
STR	19	0	1
SI_	19	0	1	96	96	5
STR	19	96	5
SCL	19	96	5	96	96	2
TAP	19	192	2
BRK	19	288	1
STR	20	0	7
SUL	20	0	7	96	48	3
STR	20	96	0
SI_	20	96	0	96	48	4
STR	20	192	6
SI_	20	192	6	96	48	1
HLD	21	0	5	96
STR	21	0	7
SUL	21	0	7	96	48	2
BRK	21	192	0
BRK	21	192	1
STR	21	288	6
SUL	21	288	6	96	48	2
TAP	21	336	6
STR	22	96	1
SUR	22	96	1	96	48	5
TAP	22	144	1
STR	22	288	7
SI_	22	288	7	96	96	4
STR	23	0	4
SUR	23	0	4	96	96	3
TAP	23	96	3
BRK	23	192	1
STR	23	288	5
SV_	23	288	5	96	96	0
STR	24	0	0
SCL	24	0	0	96	96	3
STR	24	192	0
SI_	24	192	0	96	48	3
STR	25	0	5
SUL	25	0	5	96	144	4
TAP	25	48	5
BRK	25	288	1
STR	26	0	2
SI_	26	0	2	96	48	5
TAP	26	0	6
TAP	26	192	1
STR	26	192	5
SI_	26	192	5	96	48	2
TAP	27	0	2
TAP	27	0	6
TAP	27	96	1
TAP	27	96	5
TAP	27	144	1
STR	27	192	2
SI_	27	192	2	96	48	5
TAP	27	192	6
TAP	28	0	1
STR	28	0	5
SI_	28	0	5	96	48	2
STR	28	192	2
SI_	28	192	2	96	48	5
TAP	28	192	6
TAP	29	0	1
TAP	29	0	5
TAP	29	96	2
TAP	29	96	6
TAP	29	144	6
TAP	29	192	1
STR	29	192	5
SI_	29	192	5	96	48	2
STR	30	0	3
SCL	30	0	3	96	48	0
STR	30	0	7
SI_	30	0	7	96	48	4
STR	30	192	1
SCR	30	192	1	96	48	4
STR	30	192	5
SCR	30	192	5	96	48	0
STR	31	0	3
SV_	31	0	3	96	48	0
STR	31	0	7
SI_	31	0	7	96	48	4
STR	31	192	0
SI_	31	192	0	96	48	4
STR	32	0	5
SUR	32	0	5	96	48	3
STR	32	96	2
SUL	32	96	2	96	48	4
STR	32	192	5
SUR	32	192	5	96	48	2
STR	33	0	0
SI_	33	0	0	96	48	2
STR	33	0	6
SI_	33	0	6	96	48	4
STR	33	192	0
SUL	33	192	0	96	48	3
STR	34	0	1
SI_	34	0	1	96	48	4
HLD	34	0	6	96
BRK	34	192	0
BRK	34	192	1
TAP	34	288	0
TAP	34	336	0
TAP	35	0	6
TAP	35	0	7
BRK	35	96	1
BRK	35	96	4
TAP	35	192	2
TAP	35	216	3
TAP	35	240	2
TAP	35	264	3
TAP	35	288	2
TAP	35	336	1
TAP	36	0	2
TAP	36	0	3
BRK	36	96	0
BRK	36	96	5
TAP	36	192	2
TAP	36	192	7
TAP	36	264	5
TAP	36	288	4
TAP	36	336	2
TAP	37	0	2
TAP	37	0	3
BRK	37	96	1
BRK	37	96	6
TAP	37	192	1
TAP	37	240	2
TAP	37	288	3
TAP	37	336	4
TAP	38	0	1
TAP	38	0	5
TAP	38	48	2
TAP	38	48	6
TAP	38	96	3
TAP	38	96	7
TAP	38	144	0
TAP	38	144	4
BRK	38	192	2
BRK	38	192	6
BRK	38	240	0
BRK	38	240	7
BRK	38	288	1
BRK	38	288	6
STR	39	0	1
SCR	39	0	1	96	48	4
STR	39	0	5
SCR	39	0	5	96	48	0
HLD	39	192	6	72
TAP	39	264	5
TAP	39	288	6
TAP	39	336	4
TAP	40	0	3
BRK	40	96	4
BRK	40	96	5
HLD	40	192	1	72
TAP	40	264	2
TAP	40	288	1
TAP	40	336	3
TAP	41	0	4
BRK	41	96	1
BRK	41	96	6
TAP	41	144	5
TAP	41	192	6
TAP	41	240	7
BRK	41	288	0
TAP	41	336	1
BRK	42	0	2
BRK	42	0	7
BRK	42	96	0
BRK	42	96	5
BRK	42	192	1
BRK	42	192	6
TAP	42	288	7
TAP	42	336	7
TAP	43	0	0
TAP	43	0	1
BRK	43	96	3
BRK	43	96	6
TAP	43	192	5
TAP	43	216	4
TAP	43	240	5
TAP	43	264	4
TAP	43	288	5
TAP	43	336	6
TAP	44	0	4
TAP	44	0	5
BRK	44	96	2
BRK	44	96	7
TAP	44	192	0
TAP	44	192	5
TAP	44	264	2
TAP	44	288	3
TAP	44	336	5
TAP	45	0	4
TAP	45	0	5
BRK	45	96	1
BRK	45	96	6
TAP	45	192	6
TAP	45	240	5
TAP	45	288	4
TAP	45	336	3
TAP	46	0	2
TAP	46	0	6
TAP	46	48	1
TAP	46	48	5
TAP	46	96	0
TAP	46	96	4
TAP	46	144	3
TAP	46	144	7
BRK	46	192	1
BRK	46	192	5
BRK	46	240	0
BRK	46	240	7
BRK	46	288	2
BRK	46	288	5
TAP	47	0	2
TAP	47	0	3
BRK	47	96	4
BRK	47	96	5
HLD	47	192	1	72
TAP	47	264	2
TAP	47	288	1
TAP	47	336	3
TAP	48	0	4
TAP	48	0	7
BRK	48	96	2
BRK	48	96	3
HLD	48	192	6	72
TAP	48	264	5
TAP	48	288	6
TAP	48	336	4
TAP	49	0	0
TAP	49	0	3
BRK	49	96	1
BRK	49	96	6
TAP	49	144	2
TAP	49	192	1
BRK	49	240	0
BRK	49	288	7
TAP	49	336	6
BRK	50	0	2
BRK	50	0	5
BRK	50	48	3
BRK	50	48	4
BRK	50	96	1
BRK	50	96	6
BRK	50	144	0
BRK	50	144	7
BRK	50	192	2
BRK	50	192	5
BRK	50	288	1
BRK	50	288	6
HLD	51	0	3	96
STR	51	0	5
SCR	51	0	5	96	48	7
STR	51	192	2
SCL	51	192	2	96	48	0
HLD	51	192	4	96
HLD	52	0	3	96
STR	52	0	5
SCR	52	0	5	96	48	7
STR	52	192	2
SCL	52	192	2	96	48	0
HLD	52	192	4	96
HLD	53	0	3	96
STR	53	0	5
SCR	53	0	5	96	48	7
STR	53	192	2
SCL	53	192	2	96	48	0
HLD	53	192	4	96
TAP	54	0	4
TAP	54	0	6
TAP	54	48	3
TAP	54	48	7
HLD	54	96	0	144
HLD	54	96	2	144
BRK	54	288	4
BRK	54	288	5
STR	55	0	2
SCL	55	0	2	96	48	0
STR	55	96	5
SCR	55	96	5	96	48	7
STR	55	192	3
SCL	55	192	3	96	48	1
STR	55	288	4
SCR	55	288	4	96	48	6
STR	56	0	2
SCL	56	0	2	96	48	0
STR	56	96	5
SCR	56	96	5	96	48	7
STR	56	192	3
SCL	56	192	3	96	48	1
STR	56	288	4
SCR	56	288	4	96	48	6
STR	57	0	2
SCL	57	0	2	96	48	0
TAP	57	48	2
STR	57	96	5
SCR	57	96	5	96	48	7
TAP	57	144	5
STR	57	192	3
SCL	57	192	3	96	48	1
TAP	57	240	3
STR	57	288	4
SCR	57	288	4	96	48	6
TAP	57	336	4
STR	58	0	2
SCL	58	0	2	96	48	0
TAP	58	48	2
STR	58	96	5
SCR	58	96	5	96	48	7
TAP	58	144	5
STR	58	192	3
SCL	58	192	3	96	48	1
TAP	58	240	3
STR	59	0	1
SI_	59	0	1	96	48	4
STR	59	0	5
SI_	59	0	5	96	48	0
STR	59	192	3
SCL	59	192	3	96	48	0
STR	59	192	7
SCL	59	192	7	96	48	4
STR	60	0	2
SUR	60	0	2	96	96	4
STR	60	0	4
SCR	60	0	4	96	96	2
BRK	60	288	1
BRK	60	288	6

T_REC_TAP	232
T_REC_BRK	74
T_REC_XTP	0
T_REC_HLD	14
T_REC_XHO	0
T_REC_STR	80
T_REC_BST	0
T_REC_XST	0
T_REC_TTP	0
T_REC_THO	0
T_REC_SLD	80
T_REC_ALL	480
T_NUM_TAP	312
T_NUM_BRK	74
T_NUM_HLD	14
T_NUM_SLD	80
T_NUM_ALL	480
T_JUDGE_TAP	386
T_JUDGE_HLD	30
T_JUDGE_SLD	80
T_JUDGE_ALL	496
TTM_EACHPAIRS	118
TTM_SCR_TAP	156000
TTM_SCR_BRK	192400
TTM_SCR_HLD	14000
TTM_SCR_SLD	120000
TTM_SCR_ALL	482400
TTM_SCR_S	460750
TTM_SCR_SS	475000
TTM_RAT_ACV	10155

