VERSION	0.00.00	1.03.00
FES_MODE	0
BPM_DEF	140.000	140.000	140.000	140.000
MET_DEF	4	4
RESOLUTION	384
CLK_DEF	384
COMPATIBLE_CODE	MA2

BPM	0	0	140.000
MET	0	0	4	4

TAP	1	0	3
TAP	1	24	4
TAP	1	48	3
TAP	1	72	4
TAP	1	96	3
TAP	1	120	4
TAP	1	144	3
TAP	1	168	4
TAP	1	192	2
TAP	1	240	5
TAP	1	288	2
TAP	1	336	5
BRK	2	0	0
BRK	2	0	7
TAP	2	192	1
TAP	3	0	6
TAP	3	192	2
TAP	4	0	5
TAP	4	192	1
TAP	5	0	6
TAP	5	192	0
TAP	5	288	7
TAP	6	0	3
TAP	6	192	2
TAP	6	192	4
TAP	7	0	4
TAP	7	192	3
TAP	7	192	5
TAP	8	0	3
TAP	8	96	1
TAP	8	96	4
TAP	8	192	4
TAP	8	288	3
TAP	8	288	6
TAP	9	0	1
TAP	9	48	1
TAP	9	96	6
TAP	9	144	6
TAP	9	192	0
TAP	9	192	7
BRK	9	288	0
BRK	9	288	7
TAP	10	0	3
TAP	10	96	1
TAP	10	96	4
TAP	10	192	4
TAP	10	288	3
TAP	10	288	6
TAP	11	0	3
TAP	11	96	1
TAP	11	96	4
TAP	11	192	4
TAP	11	288	3
TAP	11	288	6
TAP	12	0	3
TAP	12	96	1
TAP	12	96	4
TAP	12	192	4
TAP	12	288	3
TAP	12	288	6
TAP	13	0	0
TAP	13	48	7
TAP	13	96	1
TAP	13	144	6
HLD	13	192	3	96
TAP	13	192	4
BRK	13	288	2
STR	14	0	3
SI_	14	0	3	96	48	1
TAP	14	0	4
TAP	14	192	3
STR	14	192	4
SI_	14	192	4	96	48	6
STR	15	0	3
SI_	15	0	3	96	48	0
TAP	15	0	4
TAP	15	192	3
STR	15	192	4
SI_	15	192	4	96	48	7
TAP	16	0	1
TAP	16	0	4
TAP	16	192	3
TAP	16	192	6
TAP	17	0	0
TAP	17	48	7
TAP	17	96	0
TAP	17	144	7
BRK	17	192	1
BRK	17	192	6
TAP	17	288	1
TAP	17	336	2
TAP	18	0	3
TAP	18	96	6
TAP	18	144	5
TAP	18	192	4
TAP	18	288	7
TAP	18	336	0
TAP	19	0	1
STR	19	96	3
SCR	19	96	3	96	48	5
TAP	19	288	2
TAP	19	288	6
TAP	20	0	0
TAP	20	0	4
TAP	20	96	3
TAP	20	144	4
TAP	20	192	3
TAP	20	288	2
TAP	20	288	5
HLD	21	0	0	192
BRK	21	192	7
TAP	21	288	2
TAP	21	336	1
TAP	22	0	0
TAP	22	96	5
TAP	22	144	6
TAP	22	192	7
TAP	22	288	4
TAP	22	336	3
TAP	23	0	2
STR	23	96	0
SCL	23	96	0	96	48	6
TAP	23	288	1
TAP	23	288	5
TAP	24	0	3
TAP	24	0	7
TAP	24	96	7
TAP	24	144	0
TAP	24	192	7
TAP	24	288	1
TAP	24	288	6
TAP	25	0	4
TAP	25	48	3
STR	25	96	4
SCR	25	96	4	96	48	6
TAP	25	144	3
BRK	25	288	3
TAP	26	0	3
BRK	26	0	6
TAP	26	96	4
BRK	26	192	1
TAP	26	192	4
TAP	26	288	3
TAP	27	0	3
BRK	27	0	6
TAP	27	96	4
BRK	27	192	1
TAP	27	192	4
TAP	27	288	3
TAP	28	0	3
BRK	28	0	6
TAP	28	96	4
BRK	28	192	1
TAP	28	192	4
TAP	28	288	3
TAP	29	0	2
TAP	29	0	6
TAP	29	48	2
TAP	29	48	6
TAP	29	96	1
TAP	29	96	5
TAP	29	144	1
TAP	29	144	5
TAP	29	192	0
TAP	29	192	4
TAP	30	0	2
BRK	30	0	6
TAP	30	96	3
TAP	30	144	4
BRK	30	192	1
TAP	30	192	5
TAP	30	288	4
TAP	30	336	3
TAP	31	0	2
BRK	31	0	6
TAP	31	96	3
TAP	31	144	4
BRK	31	192	1
TAP	31	192	5
BRK	31	288	0
BRK	31	288	7
TAP	32	0	2
TAP	32	48	3
TAP	32	96	4
TAP	32	144	5
TAP	32	192	5
TAP	32	240	4
TAP	32	288	3
TAP	32	336	2
HLD	33	0	3	192
BRK	33	0	4
BRK	33	192	1
BRK	34	0	1
BRK	34	0	6
STR	34	96	6
SI_	34	96	6	96	48	2
STR	34	96	7
SI_	34	96	7	96	48	2
TAP	34	288	0
TAP	34	336	7
TAP	35	0	0
BRK	35	96	1
TAP	35	192	6
TAP	35	240	3
TAP	35	264	4
TAP	35	288	3
TAP	35	336	6
TAP	36	0	6
TAP	36	96	5
TAP	36	96	7
TAP	36	192	1
TAP	36	264	0
TAP	36	288	0
TAP	36	336	2
TAP	37	0	3
TAP	37	0	7
TAP	37	144	3
TAP	37	144	7
TAP	37	192	2
TAP	37	192	6
TAP	37	240	1
TAP	37	240	5
TAP	37	288	0
TAP	37	288	4
TAP	37	336	3
TAP	37	336	7
STR	38	0	3
SCR	38	0	3	96	48	6
STR	38	0	7
SCR	38	0	7	96	48	2
BRK	38	192	2
BRK	38	192	6
TAP	39	0	0
TAP	39	0	4
STR	39	96	0
SCR	39	96	0	96	48	3
STR	39	96	4
SUR	39	96	4	96	48	0
STR	40	0	1
SCR	40	0	1	96	48	4
STR	40	192	5
SCR	40	192	5	96	48	0
STR	41	0	1
SCR	41	0	1	96	48	4
STR	41	192	5
SCR	41	192	5	96	48	0
BRK	42	0	1
BRK	42	96	1
BRK	42	192	1
TAP	42	288	6
TAP	42	336	7
TAP	43	0	6
TAP	43	96	1
TAP	43	96	4
TAP	43	192	3
TAP	43	240	5
TAP	43	264	4
TAP	43	288	5
TAP	43	336	3
TAP	43	336	6
TAP	44	0	3
TAP	44	96	7
TAP	44	192	0
TAP	44	192	4
TAP	44	264	0
TAP	44	288	7
TAP	44	336	1
TAP	44	336	6
HLD	45	0	2	144
TAP	45	144	5
TAP	45	192	6
TAP	45	240	7
TAP	45	288	0
TAP	45	336	1
TAP	46	0	2
STR	46	96	1
SI_	46	96	1	96	48	4
STR	46	96	6
SI_	46	96	6	96	48	3
TAP	46	288	2
TAP	46	336	5
TAP	47	0	2
TAP	47	96	3
TAP	47	96	7
TAP	47	192	1
TAP	47	192	5
TAP	47	264	7
TAP	47	288	0
TAP	47	336	1
TAP	47	336	6
TAP	48	0	5
BRK	48	96	2
TAP	48	192	4
TAP	48	264	3
TAP	48	288	4
TAP	48	336	2
TAP	48	336	5
TAP	49	0	6
BRK	49	96	1
TAP	49	240	7
TAP	49	288	0
TAP	50	0	4
TAP	50	48	3
TAP	50	96	4
TAP	50	144	3
HLD	50	192	4	96
BRK	50	288	6
TAP	51	0	0
TAP	51	96	2
TAP	51	192	4
TAP	51	288	6
TAP	52	0	7
TAP	52	96	5
TAP	52	192	3
TAP	52	288	1
TAP	53	0	1
TAP	53	0	4
TAP	53	192	3
TAP	53	192	6
HLD	54	0	2	192
HLD	54	0	6	192
BRK	54	288	4
BRK	54	288	5
STR	55	0	1
SI_	55	0	1	96	144	6
STR	55	0	5
SI_	55	0	5	96	144	2
TAP	56	0	1
TAP	56	0	4
TAP	56	96	3
TAP	56	96	6
TAP	56	192	1
TAP	56	192	4
TAP	56	288	3
TAP	56	288	6
BRK	57	0	3
TAP	57	48	4
TAP	57	96	3
TAP	57	144	4
BRK	57	192	1
TAP	57	240	6
TAP	57	288	1
TAP	57	336	6
BRK	58	0	2
TAP	58	48	5
TAP	58	96	2
TAP	58	144	5
BRK	58	192	0
TAP	58	240	7
TAP	58	288	0
TAP	58	336	7
BRK	59	0	1
TAP	59	0	4
TAP	59	192	3
BRK	59	192	6
TAP	60	0	3
TAP	60	48	4
TAP	60	96	3
TAP	60	144	4
HLD	60	192	3	96
BRK	60	288	2

T_REC_TAP	268
T_REC_BRK	43
T_REC_XTP	0
T_REC_HLD	8
T_REC_XHO	0
T_REC_STR	21
T_REC_BST	0
T_REC_XST	0
T_REC_TTP	0
T_REC_THO	0
T_REC_SLD	21
T_REC_ALL	361
T_NUM_TAP	289
T_NUM_BRK	43
T_NUM_HLD	8
T_NUM_SLD	21
T_NUM_ALL	361
T_JUDGE_TAP	332
T_JUDGE_HLD	25
T_JUDGE_SLD	21
T_JUDGE_ALL	378
TTM_EACHPAIRS	77
TTM_SCR_TAP	144500
TTM_SCR_BRK	111800
TTM_SCR_HLD	8000
TTM_SCR_SLD	31500
TTM_SCR_ALL	295800
TTM_SCR_S	282800
TTM_SCR_SS	291500
TTM_RAT_ACV	10147

