VERSION	0.00.00	1.03.00
FES_MODE	0
BPM_DEF	140.000	140.000	140.000	140.000
MET_DEF	4	4
RESOLUTION	384
CLK_DEF	384
COMPATIBLE_CODE	MA2

BPM	0	0	140.000
MET	0	0	4	4

TAP	2	0	1
TAP	2	0	6
TAP	3	0	3
TAP	3	0	4
TAP	4	0	2
TAP	4	0	5
TAP	5	0	0
TAP	5	0	7
TAP	6	0	1
TAP	6	192	6
TAP	7	0	1
TAP	7	192	6
TAP	8	0	2
TAP	8	96	2
TAP	8	192	5
TAP	8	288	5
STR	9	0	0
SI_	9	0	0	96	96	4
TAP	10	0	3
TAP	10	0	4
TAP	10	96	1
TAP	10	192	3
TAP	10	192	4
TAP	10	288	6
TAP	11	0	3
TAP	11	0	4
TAP	11	96	1
TAP	11	192	3
TAP	11	192	4
TAP	11	288	6
TAP	12	0	3
TAP	12	0	4
TAP	12	96	1
TAP	12	192	3
TAP	12	192	4
TAP	12	288	6
TAP	13	0	0
TAP	13	0	7
TAP	13	96	1
TAP	13	96	6
BRK	13	192	2
BRK	13	192	5
TAP	14	0	3
TAP	14	0	4
TAP	14	96	1
TAP	14	192	3
TAP	14	192	4
TAP	14	288	6
TAP	15	0	3
TAP	15	0	4
TAP	15	96	1
TAP	15	192	3
TAP	15	192	4
TAP	15	288	6
TAP	16	0	0
TAP	16	0	1
TAP	16	192	6
TAP	16	192	7
TAP	17	0	2
TAP	17	0	5
TAP	17	96	1
TAP	17	96	6
BRK	17	192	0
BRK	17	192	7
TAP	18	0	2
TAP	18	96	3
TAP	18	192	4
TAP	18	288	3
TAP	19	0	5
TAP	19	96	4
TAP	19	192	3
TAP	19	288	4
TAP	20	0	2
TAP	20	96	3
TAP	20	192	4
TAP	20	288	5
STR	21	0	7
SI_	21	0	7	96	96	3
TAP	22	0	5
TAP	22	96	4
TAP	22	192	3
TAP	22	288	4
TAP	23	0	2
TAP	23	96	3
TAP	23	192	4
TAP	23	288	3
TAP	24	0	1
TAP	24	96	0
TAP	24	192	7
TAP	24	288	6
TAP	25	0	4
TAP	25	0	5
TAP	25	96	2
TAP	25	96	3
BRK	25	192	1
BRK	25	192	6
TAP	26	0	3
TAP	26	0	4
TAP	26	192	1
TAP	26	288	0
TAP	27	0	3
TAP	27	0	4
TAP	27	192	6
TAP	27	288	7
TAP	28	0	3
TAP	28	0	4
TAP	28	192	0
TAP	28	288	7
TAP	29	0	1
TAP	29	0	6
TAP	29	96	2
TAP	29	96	5
TAP	29	192	3
TAP	29	192	4
TAP	30	0	3
TAP	30	0	4
TAP	30	192	0
TAP	30	192	1
TAP	30	288	0
TAP	30	288	1
TAP	31	0	3
TAP	31	0	4
TAP	31	192	6
TAP	31	192	7
TAP	31	288	6
TAP	31	288	7
TAP	32	0	5
TAP	32	96	0
TAP	32	192	2
TAP	32	288	7
BRK	33	0	0
BRK	33	0	5
BRK	33	192	2
BRK	33	192	7
BRK	34	0	1
BRK	34	0	6
TAP	35	0	2
TAP	35	96	4
TAP	35	192	2
TAP	35	288	1
TAP	35	288	6
TAP	36	0	5
TAP	36	96	3
TAP	36	192	5
TAP	36	288	1
TAP	36	288	6
BRK	37	0	0
BRK	37	0	7
TAP	37	192	1
TAP	37	288	6
TAP	38	0	0
TAP	38	48	7
TAP	38	96	0
TAP	38	144	7
TAP	38	192	0
TAP	39	0	1
TAP	39	96	2
TAP	39	192	3
TAP	39	288	4
TAP	39	288	5
TAP	40	0	6
TAP	40	96	5
TAP	40	192	4
TAP	40	288	2
TAP	40	288	3
TAP	41	0	0
TAP	41	0	1
TAP	41	192	6
TAP	41	192	7
TAP	42	0	2
TAP	42	0	4
TAP	42	96	3
TAP	42	96	5
BRK	42	192	1
BRK	42	192	6
TAP	43	0	2
TAP	43	96	3
TAP	43	192	2
TAP	43	288	0
TAP	43	288	1
TAP	44	0	5
TAP	44	96	4
TAP	44	192	5
TAP	44	288	6
TAP	44	288	7
BRK	45	0	2
BRK	45	0	5
TAP	45	192	2
TAP	45	192	3
TAP	45	288	4
TAP	45	288	5
TAP	46	0	3
TAP	46	48	4
TAP	46	96	3
TAP	46	144	4
TAP	46	192	3
TAP	47	0	2
TAP	47	96	1
TAP	47	192	0
TAP	47	288	6
TAP	47	288	7
TAP	48	0	5
TAP	48	96	6
TAP	48	192	7
TAP	48	288	0
TAP	48	288	1
TAP	49	0	3
TAP	49	0	4
TAP	49	192	1
TAP	49	192	6
TAP	50	0	0
TAP	50	0	7
TAP	50	48	0
TAP	50	48	7
TAP	50	96	0
TAP	50	96	7
TAP	50	144	0
TAP	50	144	7
TAP	50	192	0
TAP	50	192	7
STR	51	0	3
SI_	51	0	3	96	72	1
STR	51	192	4
SI_	51	192	4	96	72	6
STR	52	0	3
SI_	52	0	3	96	72	1
STR	52	192	4
SI_	52	192	4	96	72	6
STR	53	0	3
SI_	53	0	3	96	72	1
TAP	53	192	4
TAP	54	0	0
TAP	54	48	7
TAP	54	96	0
TAP	54	144	7
TAP	54	192	0
TAP	55	0	3
TAP	55	0	4
TAP	55	96	1
TAP	55	192	3
TAP	55	192	4
TAP	55	288	6
TAP	56	0	3
TAP	56	0	4
TAP	56	96	0
TAP	56	192	3
TAP	56	192	4
TAP	56	288	7
STR	57	0	0
SI_	57	0	0	96	96	4
STR	57	192	7
SI_	57	192	7	96	96	3
STR	58	0	1
SI_	58	0	1	96	96	4
STR	58	192	6
SI_	58	192	6	96	96	3
TAP	59	0	2
TAP	59	192	5
TAP	60	0	1
TAP	60	48	6
TAP	60	96	1
TAP	60	144	6
TAP	60	192	1
BRK	60	288	0
BRK	60	288	7

T_REC_TAP	223
T_REC_BRK	20
T_REC_XTP	0
T_REC_HLD	0
T_REC_XHO	0
T_REC_STR	11
T_REC_BST	0
T_REC_XST	0
T_REC_TTP	0
T_REC_THO	0
T_REC_SLD	11
T_REC_ALL	265
T_NUM_TAP	234
T_NUM_BRK	20
T_NUM_HLD	0
T_NUM_SLD	11
T_NUM_ALL	265
T_JUDGE_TAP	254
T_JUDGE_HLD	0
T_JUDGE_SLD	11
T_JUDGE_ALL	265
TTM_EACHPAIRS	69
TTM_SCR_TAP	117000
TTM_SCR_BRK	52000
TTM_SCR_HLD	0
TTM_SCR_SLD	16500
TTM_SCR_ALL	185500
TTM_SCR_S	178000
TTM_SCR_SS	183500
TTM_RAT_ACV	10108

