VERSION	0.00.00	1.03.00
FES_MODE	0
BPM_DEF	140.000	140.000	140.000	140.000
MET_DEF	4	4
RESOLUTION	384
CLK_DEF	384
COMPATIBLE_CODE	MA2

BPM	0	0	140.000
MET	0	0	4	4

TAP	6	0	4
TAP	6	192	4
TAP	7	0	5
TAP	7	192	5
TAP	8	0	6
TAP	8	192	6
TAP	9	0	7
TAP	9	96	7
BRK	9	192	7
TAP	10	0	0
TAP	10	192	0
TAP	11	0	1
TAP	11	192	1
TAP	12	0	2
TAP	12	192	2
TAP	13	0	1
TAP	13	96	1
TAP	13	192	1
TAP	14	0	2
TAP	14	192	2
TAP	15	0	3
TAP	15	192	3
TAP	16	0	3
TAP	16	0	4
TAP	16	192	3
TAP	16	192	4
TAP	17	0	3
TAP	17	96	3
BRK	17	192	3
TAP	18	0	4
TAP	18	192	4
TAP	19	0	3
TAP	19	192	3
HLD	20	0	2	192
STR	21	0	1
SI_	21	0	1	96	96	5
TAP	22	0	6
TAP	22	192	6
TAP	23	0	5
TAP	23	192	5
HLD	24	0	4	192
TAP	25	0	3
TAP	25	96	3
TAP	25	192	3
TAP	26	0	2
TAP	26	192	5
TAP	27	0	2
TAP	27	192	5
TAP	28	0	2
TAP	28	192	5
TAP	29	0	2
TAP	29	192	5
TAP	30	0	2
TAP	30	192	5
TAP	31	0	2
TAP	31	192	5
TAP	32	0	3
TAP	32	0	4
TAP	32	192	3
TAP	32	192	4
BRK	33	0	2
BRK	33	192	1
BRK	34	0	0
TAP	35	0	0
TAP	35	96	0
TAP	35	192	0
TAP	36	0	7
TAP	36	96	7
TAP	36	192	7
TAP	37	0	0
TAP	37	192	1
TAP	38	0	0
TAP	38	96	0
TAP	38	192	0
TAP	39	0	7
TAP	39	96	7
TAP	39	192	7
TAP	40	0	0
TAP	40	96	0
TAP	40	192	0
TAP	41	0	7
TAP	41	192	6
TAP	42	0	7
TAP	42	96	7
TAP	42	192	7
TAP	43	0	0
TAP	43	96	0
TAP	43	192	0
TAP	44	0	1
TAP	44	96	1
TAP	44	192	1
TAP	45	0	2
TAP	45	0	3
TAP	45	192	2
TAP	45	192	3
TAP	46	0	4
TAP	46	96	4
TAP	46	192	4
TAP	47	0	3
TAP	47	96	3
TAP	47	192	3
TAP	48	0	4
TAP	48	96	4
TAP	48	192	4
TAP	49	0	4
TAP	49	0	5
TAP	49	192	4
TAP	49	192	5
TAP	50	0	6
TAP	50	96	6
BRK	50	192	6
TAP	51	0	7
TAP	51	192	7
TAP	52	0	6
TAP	52	192	6
TAP	53	0	5
TAP	53	192	5
TAP	54	0	4
TAP	54	96	4
TAP	54	192	4
TAP	55	0	3
TAP	55	192	3
TAP	56	0	2
TAP	56	192	2
TAP	57	0	0
TAP	57	0	1
TAP	57	192	0
TAP	57	192	1
TAP	58	0	6
TAP	58	0	7
TAP	58	192	6
TAP	58	192	7
TAP	59	0	0
TAP	59	192	7
TAP	60	0	0
TAP	60	96	7
TAP	60	192	0
TAP	60	288	0
TAP	60	288	7

T_REC_TAP	129
T_REC_BRK	6
T_REC_XTP	0
T_REC_HLD	2
T_REC_XHO	0
T_REC_STR	1
T_REC_BST	0
T_REC_XST	0
T_REC_TTP	0
T_REC_THO	0
T_REC_SLD	1
T_REC_ALL	139
T_NUM_TAP	130
T_NUM_BRK	6
T_NUM_HLD	2
T_NUM_SLD	1
T_NUM_ALL	139
T_JUDGE_TAP	136
T_JUDGE_HLD	8
T_JUDGE_SLD	1
T_JUDGE_ALL	145
TTM_EACHPAIRS	13
TTM_SCR_TAP	65000
TTM_SCR_BRK	15600
TTM_SCR_HLD	2000
TTM_SCR_SLD	1500
TTM_SCR_ALL	84100
TTM_SCR_S	81000
TTM_SCR_SS	83500
TTM_RAT_ACV	10071

