VERSION	0.00.00	1.03.00
FES_MODE	0
BPM_DEF	160.000	160.000	160.000	160.000
MET_DEF	4	4
RESOLUTION	384
CLK_DEF	384
COMPATIBLE_CODE	MA2

BPM	0	0	160.000
MET	0	0	4	4

TAP	1	0	5
TAP	1	48	4
TAP	1	72	5
TAP	1	144	6
TAP	1	192	1
TAP	1	240	3
TAP	1	264	2
TAP	1	336	0
TAP	1	336	7
TAP	2	0	2
TAP	2	48	4
TAP	2	96	6
HLD	2	168	4	72
HLD	2	240	1	96
TAP	2	336	7
TAP	3	0	2
TAP	3	48	3
TAP	3	72	2
TAP	3	144	1
TAP	3	144	6
TAP	3	192	5
TAP	3	240	4
TAP	3	264	5
TAP	3	336	1
TAP	3	336	6
TAP	4	0	2
TAP	4	48	5
TAP	4	96	0
TAP	4	144	7
HLD	4	192	0	96
BRK	4	288	7
TAP	5	0	1
TAP	5	48	0
TAP	5	72	1
TAP	5	144	2
TAP	5	144	5
TAP	5	192	6
TAP	5	240	7
TAP	5	264	6
TAP	5	336	2
TAP	5	336	5
TAP	6	0	7
TAP	6	48	1
TAP	6	96	3
HLD	6	168	0	72
HLD	6	240	5	96
TAP	6	336	3
TAP	7	0	5
TAP	7	48	4
TAP	7	72	6
TAP	7	144	0
TAP	7	144	7
TAP	7	192	2
TAP	7	240	3
TAP	7	264	1
TAP	7	336	0
TAP	7	336	7
TAP	8	0	1
TAP	8	0	6
TAP	8	96	0
TAP	8	144	7
TAP	8	192	0
TAP	8	216	7
TAP	8	240	0
TAP	8	264	7
BRK	8	288	0
STR	9	0	1
SCR	9	0	1	96	96	4
TAP	9	48	0
TAP	9	96	7
TAP	9	144	6
STR	9	192	5
SUL	9	192	5	96	96	2
TAP	10	48	1
TAP	10	96	0
TAP	10	144	7
TAP	10	192	6
TAP	10	264	2
TAP	10	336	4
TAP	11	0	1
TAP	11	48	2
TAP	11	144	6
TAP	11	192	5
TAP	11	288	3
TAP	11	288	4
TAP	12	0	0
TAP	12	48	4
TAP	12	144	3
STR	12	192	7
SI_	12	192	7	96	48	3
BRK	12	288	0
STR	13	0	6
SCL	13	0	6	96	96	3
TAP	13	48	7
TAP	13	96	0
TAP	13	144	1
STR	13	192	2
SUR	13	192	2	96	96	5
TAP	14	48	6
TAP	14	96	7
TAP	14	144	0
TAP	14	192	1
TAP	14	264	5
TAP	14	336	3
TAP	15	0	6
TAP	15	48	5
TAP	15	144	1
TAP	15	192	2
TAP	15	288	0
TAP	15	288	7
TAP	16	0	2
TAP	16	48	7
TAP	16	144	0
STR	16	192	5
SV_	16	192	5	96	48	2
BRK	16	288	1
TAP	17	0	0
TAP	17	0	7
TAP	17	96	2
TAP	17	144	3
TAP	17	192	4
TAP	17	240	5
TAP	17	288	5
TAP	17	336	4
TAP	18	0	3
TAP	18	48	2
TAP	18	96	3
TAP	18	144	4
TAP	18	192	5
TAP	18	240	4
TAP	18	288	3
TAP	18	336	2
TAP	18	336	5
TAP	19	0	0
TAP	19	0	7
TAP	19	96	6
TAP	19	144	7
TAP	19	192	0
TAP	19	240	1
TAP	19	288	1
TAP	19	336	0
TAP	20	0	7
TAP	20	48	6
TAP	20	96	7
TAP	20	144	0
TAP	20	192	1
TAP	20	240	0
TAP	20	288	7
TAP	20	336	1
TAP	20	336	6
TAP	21	0	2
TAP	21	0	5
TAP	21	96	1
TAP	21	144	2
TAP	21	144	3
TAP	21	192	6
TAP	21	240	4
TAP	21	240	5
TAP	21	288	1
TAP	21	336	0
TAP	21	336	7
TAP	22	0	1
TAP	22	48	2
TAP	22	48	3
TAP	22	96	6
TAP	22	144	4
TAP	22	144	5
TAP	22	192	0
TAP	22	264	7
TAP	22	336	0
TAP	22	336	1
TAP	23	0	3
TAP	23	0	7
TAP	23	72	2
TAP	23	72	5
TAP	23	144	6
TAP	23	144	7
STR	23	192	0
SI_	23	192	0	96	48	5
STR	23	192	4
SI_	23	192	4	96	48	1
BRK	24	0	3
BRK	24	0	7
TAP	24	96	0
TAP	24	96	4
TAP	24	192	1
TAP	24	192	5
TAP	24	288	2
TAP	24	288	6
TAP	25	0	3
TAP	25	0	7
STR	25	96	7
SI_	25	96	7	96	48	3
TAP	25	144	7
STR	25	192	1
SI_	25	192	1	96	48	5
TAP	25	240	1
TAP	26	0	4
TAP	26	0	6
STR	26	96	6
SI_	26	96	6	96	48	3
TAP	26	144	6
STR	26	192	0
SI_	26	192	0	96	48	5
TAP	26	240	0
TAP	27	0	0
TAP	27	0	1
STR	27	96	6
SCR	27	96	6	96	96	1
TAP	27	144	5
TAP	27	192	4
TAP	27	240	3
TAP	27	288	2
TAP	27	336	1
STR	28	0	1
SI_	28	0	1	96	48	5
STR	28	96	7
SI_	28	96	7	96	48	3
TAP	28	144	7
STR	28	192	0
SI_	28	192	0	96	48	4
TAP	28	240	0
TAP	29	0	0
TAP	29	0	6
STR	29	96	7
SI_	29	96	7	96	48	2
TAP	29	144	7
STR	29	192	1
SI_	29	192	1	96	48	4
TAP	29	240	1
TAP	30	0	0
TAP	30	0	2
STR	30	96	1
SV_	30	96	1	96	48	4
TAP	30	144	1
STR	30	192	6
SV_	30	192	6	96	48	3
TAP	30	240	6
HLD	31	0	1	72
HLD	31	72	2	72
TAP	31	144	3
HLD	31	192	4	72
HLD	31	264	5	72
TAP	31	336	6
BRK	32	192	0
BRK	32	192	5
STR	32	288	2
SI_	32	288	2	96	48	7
STR	32	288	3
SI_	32	288	3	96	48	6
TAP	33	96	0
TAP	33	120	5
TAP	33	144	1
TAP	33	168	4
TAP	33	192	2
TAP	33	216	3
TAP	33	240	2
TAP	33	264	3
TAP	33	288	2
TAP	34	0	0
TAP	34	0	1
TAP	34	96	7
TAP	34	120	2
TAP	34	144	6
TAP	34	168	3
TAP	34	192	5
TAP	34	216	4
TAP	34	240	5
TAP	34	264	4
TAP	34	288	5
TAP	35	0	3
TAP	35	0	4
TAP	35	96	7
TAP	35	120	0
TAP	35	144	6
TAP	35	168	1
TAP	35	192	7
TAP	35	216	0
TAP	35	240	6
TAP	35	264	1
TAP	35	288	7
TAP	35	312	0
TAP	35	336	6
TAP	35	360	1
STR	36	0	7
SCR	36	0	7	96	96	2
STR	36	96	2
SCR	36	96	2	96	96	5
STR	36	192	5
SCR	36	192	5	96	96	0
STR	36	288	0
SI_	36	288	0	96	48	4
HLD	37	192	1	192
TAP	37	264	2
TAP	37	336	3
TAP	38	0	7
HLD	38	96	6	168
TAP	38	192	5
TAP	38	264	4
TAP	38	336	7
TAP	39	0	2
TAP	39	24	3
TAP	39	48	2
TAP	39	72	3
TAP	39	120	1
TAP	39	144	6
TAP	39	192	5
TAP	39	216	4
TAP	39	240	5
TAP	39	264	4
TAP	39	312	6
TAP	39	336	1
TAP	40	0	3
TAP	40	48	1
TAP	40	96	7
TAP	40	144	4
TAP	40	168	5
TAP	40	240	2
TAP	40	240	3
TAP	40	336	1
TAP	40	336	6
TAP	41	0	2
TAP	41	24	4
TAP	41	48	2
TAP	41	72	4
TAP	41	120	1
TAP	41	144	6
TAP	41	192	5
TAP	41	216	3
TAP	41	240	5
TAP	41	264	3
TAP	41	312	6
TAP	41	336	1
TAP	42	0	4
TAP	42	48	6
TAP	42	96	0
TAP	42	120	7
TAP	42	144	0
TAP	42	168	7
HLD	42	192	0	96
BRK	42	288	7
TAP	43	0	1
TAP	43	24	0
TAP	43	48	1
TAP	43	72	0
TAP	43	120	2
TAP	43	144	5
TAP	43	192	6
TAP	43	216	7
TAP	43	240	6
TAP	43	264	7
TAP	43	312	5
TAP	43	336	2
TAP	44	0	0
TAP	44	48	6
TAP	44	96	2
TAP	44	144	5
TAP	44	168	4
TAP	44	240	3
TAP	44	240	6
TAP	44	336	0
TAP	44	336	1
TAP	45	0	1
TAP	45	24	7
TAP	45	48	1
TAP	45	72	7
TAP	45	120	2
TAP	45	144	5
TAP	45	192	6
TAP	45	216	0
TAP	45	240	6
TAP	45	264	0
TAP	45	312	5
TAP	45	336	2
TAP	46	0	0
TAP	46	0	7
TAP	46	96	3
TAP	46	120	4
TAP	46	144	3
TAP	46	168	4
TAP	46	192	2
TAP	46	216	5
TAP	46	240	2
TAP	46	264	5
TAP	46	288	2
BRK	47	0	0
BRK	47	0	7
TAP	48	288	5
TAP	48	336	6
STR	49	0	7
SUR	49	0	7	96	192	2
HLD	50	0	2	96
HLD	50	96	0	96
HLD	50	192	6	72
TAP	50	264	4
TAP	50	344	3
STR	51	40	4
SUL	51	40	4	96	264	1
HLD	52	240	6	144
TAP	52	336	5
STR	53	0	5
SUR	53	0	5	96	144	2
STR	53	288	1
SCL	53	288	1	96	96	6
TAP	54	192	1
TAP	54	264	0
TAP	54	336	7
STR	55	0	6
SCL	55	0	6	96	144	1
TAP	56	0	0
TAP	56	0	7
TAP	56	96	3
TAP	56	96	7
TAP	56	192	2
TAP	56	192	6
TAP	56	288	1
TAP	56	288	5
TAP	57	0	0
TAP	57	0	4
TAP	57	144	7
HLD	57	192	7	216
TAP	57	288	6
TAP	57	360	5
HLD	58	24	4	360
TAP	58	144	2
TAP	58	192	1
TAP	58	264	0
TAP	58	336	7
STR	59	0	6
SCR	59	0	6	96	144	2
TAP	60	0	0
TAP	60	96	6
TAP	60	96	7
TAP	60	192	4
TAP	60	192	5
TAP	60	288	2
TAP	60	288	3
TAP	61	0	0
TAP	61	0	1
TAP	61	144	0
HLD	61	192	0	192
TAP	61	288	1
TAP	61	336	2
HLD	62	0	3	384
TAP	62	144	5
TAP	62	192	6
TAP	62	264	7
TAP	62	336	0
STR	63	0	1
SCR	63	0	1	96	144	4
BRK	64	0	7
HLD	64	144	6	96
TAP	64	240	7
TAP	64	288	0
TAP	64	336	1
STR	65	0	2
SI_	65	0	2	96	48	7
STR	65	96	4
SI_	65	96	4	96	48	0
STR	65	192	3
SI_	65	192	3	96	48	6
BRK	65	288	5
STR	66	0	5
SI_	66	0	5	96	48	0
STR	66	96	3
SI_	66	96	3	96	48	7
STR	66	192	4
SI_	66	192	4	96	48	1
BRK	66	288	2
STR	67	0	3
SI_	67	0	3	96	48	6
STR	67	96	4
SI_	67	96	4	96	48	0
STR	67	192	2
SI_	67	192	2	96	48	7
STR	67	288	6
SCL	67	288	6	96	96	3
STR	68	0	3
SCL	68	0	3	96	96	0
STR	68	96	0
SCL	68	96	0	96	96	5
STR	68	192	5
SCL	68	192	5	96	96	2
STR	68	288	2
SI_	68	288	2	96	48	7
BRK	69	0	0
TAP	69	192	1
TAP	69	192	2
TAP	69	264	0
TAP	69	264	2
TAP	69	336	5
TAP	69	336	6
TAP	70	0	5
TAP	70	0	7
TAP	70	96	2
TAP	70	96	3
TAP	70	192	4
TAP	70	192	5
TAP	70	264	1
TAP	70	264	6
TAP	70	336	0
TAP	70	336	7
TAP	71	0	1
TAP	71	24	3
TAP	71	48	1
TAP	71	72	3
TAP	71	120	2
TAP	71	144	5
TAP	71	192	6
TAP	71	216	4
TAP	71	240	6
TAP	71	264	4
TAP	71	312	5
TAP	71	336	2
TAP	72	0	3
TAP	72	48	1
TAP	72	96	7
TAP	72	144	4
TAP	72	168	5
TAP	72	240	2
TAP	72	240	3
TAP	72	336	1
TAP	72	336	6
TAP	73	0	2
TAP	73	24	0
TAP	73	48	2
TAP	73	72	0
TAP	73	120	1
TAP	73	144	6
TAP	73	192	5
TAP	73	216	7
TAP	73	240	5
TAP	73	264	7
TAP	73	312	6
TAP	73	336	1
TAP	74	0	4
TAP	74	48	6
TAP	74	96	0
TAP	74	120	2
TAP	74	144	0
TAP	74	168	2
HLD	74	192	0	96
BRK	74	288	7
TAP	75	0	1
TAP	75	24	0
TAP	75	48	2
TAP	75	72	0
TAP	75	120	3
TAP	75	144	4
TAP	75	192	6
TAP	75	216	7
TAP	75	240	5
TAP	75	264	7
TAP	75	312	4
TAP	75	336	3
TAP	76	0	2
TAP	76	48	0
TAP	76	48	4
TAP	76	96	6
TAP	76	144	3
TAP	76	168	7
TAP	76	240	1
TAP	76	240	5
TAP	76	336	3
TAP	76	336	7
TAP	77	0	2
TAP	77	24	3
TAP	77	48	1
TAP	77	72	3
TAP	77	120	0
TAP	77	144	7
TAP	77	192	5
TAP	77	216	4
TAP	77	240	6
TAP	77	264	4
TAP	77	312	7
TAP	77	336	0
TAP	78	0	0
TAP	78	0	1
TAP	78	48	0
TAP	78	48	1
TAP	78	96	4
TAP	78	96	5
TAP	78	144	4
TAP	78	144	5
TAP	78	192	3
TAP	78	192	7
STR	78	288	1
SUL	78	288	1	96	48	5
STR	78	288	5
SUL	78	288	5	96	48	1

T_REC_TAP	455
T_REC_BRK	16
T_REC_XTP	0
T_REC_HLD	22
T_REC_XHO	0
T_REC_STR	49
T_REC_BST	0
T_REC_XST	0
T_REC_TTP	0
T_REC_THO	0
T_REC_SLD	49
T_REC_ALL	591
T_NUM_TAP	504
T_NUM_BRK	16
T_NUM_HLD	22
T_NUM_SLD	49
T_NUM_ALL	591
T_JUDGE_TAP	520
T_JUDGE_HLD	66
T_JUDGE_SLD	49
T_JUDGE_ALL	635
TTM_EACHPAIRS	72
TTM_SCR_TAP	252000
TTM_SCR_BRK	41600
TTM_SCR_HLD	22000
TTM_SCR_SLD	73500
TTM_SCR_ALL	389100
TTM_SCR_S	375900
TTM_SCR_SS	387500
TTM_RAT_ACV	10041

